<?xml version="1.0" standalone="no"?>
<!DOCTYPE svg PUBLIC "-//W3C//DTD SVG 1.1//EN" "http://www.w3.org/Graphics/SVG/1.1/DTD/svg11.dtd" >
<svg xmlns="http://www.w3.org/2000/svg" xmlns:xlink="http://www.w3.org/1999/xlink" version="1.1">
<metadata></metadata>
<defs>
<font id="mm_arrowlightregular" horiz-adv-x="1109" >
<font-face units-per-em="2048" ascent="1638" descent="-410" />
<missing-glyph horiz-adv-x="360" />
<glyph horiz-adv-x="0" />
<glyph horiz-adv-x="682" />
<glyph unicode="&#xa;" horiz-adv-x="0" />
<glyph unicode=" "  horiz-adv-x="360" />
<glyph unicode="&#x09;" horiz-adv-x="360" />
<glyph unicode="&#xa0;" horiz-adv-x="360" />
<glyph unicode="!" horiz-adv-x="421" d="M113 1172q0 106 18 157.5t64 51.5q25 0 41.5 -13.5t24.5 -43t11 -64.5t3 -88q0 -23 -13.5 -211t-33.5 -413t-33 -311q-19 125 -50.5 508t-31.5 427zM121 65q0 31 21.5 52t52.5 21q20 0 36.5 -9.5t26 -26.5t9.5 -37q0 -30 -21 -50.5t-51 -20.5q-31 0 -52.5 20.5 t-21.5 50.5z" />
<glyph unicode="&#x22;" horiz-adv-x="458" d="M30 1308q0 31 21.5 52t52.5 21q20 0 36.5 -10t26 -26.5t9.5 -36.5q0 -32 -31 -172t-41 -140q-9 0 -41.5 140.5t-32.5 171.5zM224 1308q0 20 10 36.5t27 26.5t38 10q30 0 51 -21.5t21 -51.5q0 -32 -31 -172t-41 -140t-42.5 140t-32.5 172z" />
<glyph unicode="#" horiz-adv-x="1157" d="M4 355l12 62h231l94 529h-230l13 61h229l61 358h110l-60 -358h302l63 358h110l-62 -358h226l-11 -61h-227l-95 -529h245l-13 -62h-242l-61 -355h-111l63 355h-306l-60 -355h-111l61 355h-231zM358 417h303l94 529h-303z" />
<glyph unicode="$" horiz-adv-x="864" d="M6 368q16 -47 33.5 -86.5t47 -83.5t64.5 -75t86.5 -52.5t111.5 -24.5q0 118 2 321.5t2 296.5q-173 80 -253 168t-80 214q0 92 45 165.5t118.5 115.5t165.5 54v120h67q0 -20 -1 -60t-1 -60q35 0 69 -4.5t60 -12t48.5 -16t38.5 -17.5t27.5 -16t17.5 -12l5 -5l11 -230 q-5 26 -19 56.5t-38.5 63t-55.5 59.5t-74 46t-90 23q0 -89 -2 -252t-2 -254q19 -10 56 -29q51 -26 75.5 -39t66.5 -39t63 -45t48.5 -50.5t40.5 -62.5t23 -74t10 -92q0 -68 -22.5 -130t-60.5 -107t-87 -79.5t-102 -53.5t-105 -23v-128h-67v126q-54 2 -102.5 13.5t-92 32 t-67.5 34.5t-61 39q-8 5 -12 8zM142 1090q0 -85 44 -137t167 -118q0 77 -2 235.5t-2 245.5q-42 -2 -75.5 -13.5t-55 -30t-37.5 -40t-24 -47.5t-11.5 -49t-3.5 -46zM410 644q0 -89 2 -286t2 -310q58 5 103.5 29t71 56t42.5 72.5t22.5 74t5.5 65.5q0 43 -6.5 76.5t-22.5 61 t-33.5 47.5t-49.5 41t-61 36t-76 37z" />
<glyph unicode="%" horiz-adv-x="1051" d="M23 1048q0 77 21.5 141.5t57 105.5t78.5 63.5t86.5 22.5t86.5 -22t79 -63t58 -105.5t22 -142.5q0 -80 -22.5 -146t-58.5 -107t-79 -63t-87 -22q-35 0 -69.5 13.5t-65.5 41.5t-55 67t-38 95t-14 121zM115 0q96 170 357 688t331 677h82q-98 -173 -358 -689t-330 -676h-82z M121 1050q-2 -147 38 -225t104 -78t105.5 75.5t43.5 221.5q1 137 -38 221.5t-101 84.5q-65 0 -108 -81t-44 -219zM488 319q0 78 22 143t57.5 106t78.5 64t87 23t87 -22.5t78 -63.5t57 -106.5t22 -143.5q0 -79 -22 -144.5t-58.5 -105.5t-79.5 -61.5t-87 -21.5t-86 21 t-77.5 61t-57 105.5t-21.5 145.5zM586 321q-1 -146 39 -224.5t103 -78.5q65 -2 107.5 75t43.5 223q2 137 -38.5 221.5t-101.5 84.5q-42 0 -76.5 -35t-55 -104t-21.5 -162z" />
<glyph unicode="&#x26;" horiz-adv-x="1067" d="M24 341q0 137 79 238.5t210 163.5q-10 12 -32 38.5t-36.5 44.5t-35 45.5t-34 51t-26.5 50.5t-20 54.5t-7 54.5q0 68 24.5 125t66 94.5t97 58.5t117.5 21q73 0 138 -32t108 -95.5t43 -143.5q0 -27 -5.5 -53.5t-14 -48.5t-24.5 -44.5t-29 -38.5t-36 -36t-37.5 -31.5 t-41 -29t-39 -25.5t-39.5 -24l320 -417q17 25 35 72.5t28.5 106t10 112t-24.5 93.5t-72 49h174q16 -86 -11.5 -214.5t-99.5 -264.5q22 -29 71.5 -96t75.5 -100.5t60 -70.5t57 -49h-187q-24 36 -60 84t-60 79l-24 30q-55 -71 -117.5 -118.5t-122 -68t-120 -22t-113 16.5 t-98 50.5t-78 76.5t-51.5 99t-19 114zM151 379q0 -61 26 -118.5t68.5 -99.5t100.5 -64t118 -18t125 45.5t118 118.5l-362 460q-32 -19 -61 -44.5t-61.5 -65t-52 -95.5t-19.5 -119zM231 1142q0 -67 42.5 -137t147.5 -191q43 27 73.5 52.5t56.5 59.5t39.5 76.5t13.5 93.5 q0 23 -6 51t-20.5 60t-36 58t-56.5 43t-77.5 17t-82 -21.5t-67 -64.5t-27.5 -97z" />
<glyph unicode="'" horiz-adv-x="272" d="M30 1308q0 31 21.5 52t52.5 21q20 0 36.5 -10t26 -26.5t9.5 -36.5q0 -32 -31 -172t-41 -140q-9 0 -41.5 140.5t-32.5 171.5z" />
<glyph unicode="(" horiz-adv-x="561" d="M0 678q0 474 254 751q66 72 162 136q-12 -22 -45 -71.5t-60.5 -92t-61.5 -118.5t-58 -156t-40.5 -198t-16.5 -251t18 -257t43.5 -211.5t61 -170.5t63.5 -132t57.5 -98t38.5 -66q-416 316 -416 935z" />
<glyph unicode=")" horiz-adv-x="561" d="M149 -257q8 17 37.5 66.5t57.5 98t63 131.5t61 170.5t43.5 211.5t17.5 257t-16.5 251t-40 198t-57.5 156t-61.5 118.5t-60 92t-44.5 71.5q23 -15 36 -24.5t48 -38t59.5 -54.5t62 -72t63.5 -92.5t55.5 -113.5t47.5 -138t30.5 -162.5t12.5 -191.5q0 -126 -19.5 -241.5 t-47 -200t-69.5 -163t-77 -127t-81 -95.5t-69 -66t-52 -42z" />
<glyph unicode="*" horiz-adv-x="583" d="M10 1199q5 18 24.5 27t38.5 4q21 -8 64 -30t74 -46q14 22 30 22q-8 24 -14.5 58t-9 59.5t-2.5 39.5q0 19 13.5 33.5t34 14.5t35.5 -14.5t15 -33.5q0 -22 -9 -72t-23 -85q16 -3 28 -18q54 38 145 70q18 6 36 -2.5t24 -25.5q7 -21 -2.5 -40.5t-27.5 -23.5q-24 -7 -73 -14.5 t-86 -7.5q0 -22 -9 -34q31 -20 64.5 -55.5t46.5 -55.5q12 -14 9.5 -35.5t-17.5 -29.5q-19 -14 -39 -10.5t-29 17.5q-11 14 -34 60t-38 83q-8 -2 -32 -2q-16 -54 -73 -139q-10 -15 -30 -19t-35 8q-18 11 -21 32t8 35q10 16 47 52t68 57q-12 12 -12 32q-37 0 -85 10t-72 18 q-18 4 -28 22.5t-4 38.5z" />
<glyph unicode="+" horiz-adv-x="1030" d="M80 709v105h349v410h105v-410h347v-105h-347v-410h-105v410h-349z" />
<glyph unicode="," horiz-adv-x="272" d="M71 65q0 31 20.5 52t52.5 21q35 0 62 -28.5t27 -69.5q0 -51 -13.5 -102.5t-34 -88.5t-43.5 -62.5t-42 -31.5q-6 -3 -9 3q-2 5 5 8q1 0 2 1q12 4 28 36t29.5 87t13.5 110q-9 -6 -25 -6q-31 0 -52 20t-21 51z" />
<glyph unicode="-" horiz-adv-x="458" d="M60 477v89h340v-89h-340z" />
<glyph unicode="." horiz-adv-x="272" d="M84 65q0 31 21.5 52t53.5 21q20 0 36.5 -9.5t26 -26.5t9.5 -37q0 -30 -21 -50.5t-51 -20.5q-32 0 -53.5 20.5t-21.5 50.5z" />
<glyph unicode="/" horiz-adv-x="770" d="M-26 -233q80 169 333.5 795.5t312.5 802.5h115q-81 -175 -335 -801.5t-314 -796.5h-112z" />
<glyph unicode="0" horiz-adv-x="1131" d="M18 684q0 132 30 246.5t81.5 195.5t118 139.5t139.5 87t147 28.5t147 -28t140 -86t118.5 -139t82 -196t30.5 -248q0 -137 -31 -253.5t-82.5 -197t-119 -137.5t-140 -83.5t-147.5 -26.5q-61 0 -122 19.5t-118.5 56.5t-107 96t-87 134.5t-58.5 176t-21 215.5zM174 688 q-2 -158 24 -282t74 -201.5t112 -117.5t140 -41q61 0 115 24t100 74.5t79.5 124t53 177.5t21.5 230q1 118 -15.5 220t-47.5 180t-74.5 134t-97.5 85t-114 30q-75 1 -142 -43t-117 -125t-79.5 -202t-31.5 -267z" />
<glyph unicode="1" horiz-adv-x="419" d="M-4 1237l251 144v-1291q0 -62 62 -90h-251q63 29 63 90v1034q0 129 -125 113z" />
<glyph unicode="2" horiz-adv-x="838" d="M-76 0q17 28 148 171t274.5 306.5t193.5 242.5q74 117 74 251q0 132 -66.5 214.5t-187.5 82.5q-90 0 -171 -47t-166 -153q0 47 29 101t78 101.5t123.5 79t154.5 31.5q64 0 121 -23t96.5 -61t68.5 -86.5t43 -99t14 -98.5q0 -93 -40.5 -183t-101.5 -162l-481 -549h542 q26 0 43 9.5t24 19.5t15 28t12 25l19 -201h-859z" />
<glyph unicode="3" horiz-adv-x="737" d="M-71 147q13 -6 42.5 -21t40.5 -20.5t34.5 -15.5t39 -13.5t39 -6.5t47.5 -3q159 0 255.5 95t96.5 242q0 44 -11.5 83t-41 79t-75.5 71t-120.5 55t-171.5 36q12 6 49 24t53.5 26t47 24t47.5 26.5t36 24t31 24.5q76 73 76 186q0 42 -16 80t-41 64t-55 45.5t-58 29t-50 9.5 q-61 0 -109 -21t-99 -68q6 22 28.5 51.5t56.5 58.5t83 49t99 20q74 0 140.5 -39.5t106.5 -106t40 -141.5q0 -193 -252 -303q75 -8 136 -36.5t99 -68t63.5 -88.5t35.5 -94t10 -88q0 -60 -15.5 -119t-49.5 -115.5t-83.5 -99.5t-123.5 -69.5t-162 -26.5q-38 0 -71.5 6t-57 12.5 t-48 22t-38 25.5t-32.5 31.5t-26.5 30.5t-25.5 33z" />
<glyph unicode="4" horiz-adv-x="948" d="M-62 502l772 907v-800h181v-107h-181v-412q0 -62 62 -90h-246q62 30 62 90v412h-650zM124 609h464v549z" />
<glyph unicode="5" horiz-adv-x="772" d="M-44 180q69 -56 124 -83.5t125 -27.5q103 0 184.5 47.5t125 127.5t43.5 175q0 70 -25 132.5t-67.5 107t-100 70.5t-120.5 26q-76 0 -116.5 -9.5t-92.5 -38.5l111 651h419q53 0 76 8.5t46 31.5l-20 -163h-471l-67 -398q15 7 31.5 13t31 9.5t28.5 6t25 3.5t19.5 1.5 t13.5 0.5h4q54 0 111 -17t111.5 -52t97.5 -83t69.5 -115.5t26.5 -143.5q0 -97 -30 -178.5t-77 -134.5t-105 -90.5t-112 -54t-102 -16.5q-60 0 -111 14.5t-84.5 35.5t-60 49.5t-39.5 50.5t-22 44z" />
<glyph unicode="6" horiz-adv-x="990" d="M20 609q0 104 27.5 214.5t78 209t116.5 177t148.5 125t167.5 46.5q94 0 166 -39t88 -84q-52 33 -90 43.5t-120 10.5q-59 0 -114.5 -25.5t-99.5 -69t-82 -99.5t-65 -119.5t-44 -127t-23 -122.5q104 151 336 151q52 0 107 -17.5t108.5 -54t95 -87.5t67 -123.5t25.5 -155.5 q0 -97 -29.5 -178t-76.5 -135t-107 -91.5t-118.5 -54.5t-112.5 -17q-146 0 -248.5 78.5t-151.5 217t-49 327.5zM157 464q0 -89 25.5 -166t68.5 -129t98.5 -81.5t116.5 -29.5q50 0 92 11t72 29t54 44.5t39 52t26 58t16.5 56t8 52.5t3 41.5t0.5 28.5q0 21 -3.5 49t-13 66.5 t-24 76t-39 74.5t-56 65t-77 45.5t-98.5 17.5q-95 0 -166.5 -51t-107 -132t-35.5 -178z" />
<glyph unicode="7" horiz-adv-x="798" d="M-18 1166v199h803l-288 -818q-187 -541 -181 -561h-142q56 105 172 419.5t204 576.5l88 263h-552q-61 0 -104 -79z" />
<glyph unicode="8" horiz-adv-x="932" d="M18 373q0 70 22 127t64.5 100t92 74t114.5 59q-43 24 -79 53t-71 69.5t-55 94t-20 113.5q0 90 47.5 163t128.5 114t178 41q43 0 89.5 -11.5t91.5 -35.5t80.5 -57t57.5 -79.5t22 -99.5q0 -52 -14.5 -95.5t-36.5 -73.5t-57.5 -57.5t-66 -44.5t-74.5 -36q66 -25 123 -63.5 t102 -89t71.5 -117t26.5 -140.5q0 -76 -24.5 -141t-65.5 -111.5t-95.5 -79.5t-115 -49t-123.5 -16t-122.5 15t-112.5 46.5t-92.5 76.5t-62.5 109.5t-23 141.5zM134 369q0 -76 26.5 -138t70 -101t98 -59.5t113.5 -20.5q55 0 105 18t90 53t63.5 92t23.5 128q0 44 -9 81.5 t-23 65t-38.5 52.5t-47 42t-58.5 36t-62 31t-68.5 30.5t-68.5 30.5q-215 -111 -215 -341zM195 1098q0 -50 18.5 -91.5t45 -70.5t69 -55t78 -41.5t84.5 -32.5q56 28 94 62.5t63 92t25 132.5q0 28 -7 57.5t-25 61t-44 55.5t-68 39.5t-93 15.5q-46 0 -89 -15t-77 -42.5t-54 -71 t-20 -96.5z" />
<glyph unicode="9" horiz-adv-x="984" d="M12 906q0 70 15.5 132t42 109.5t62 86.5t76 66t84 45.5t84.5 27t80 8.5q87 0 161 -33.5t126.5 -91.5t89.5 -136.5t55 -169.5t18 -190q0 -108 -28 -220.5t-79 -210.5t-117.5 -175.5t-150.5 -122.5t-171 -45q-99 0 -163 35t-86 86q33 -20 45.5 -27t37.5 -16t52 -11.5 t70 -2.5q75 0 142.5 37t116.5 96.5t87 135t59.5 152.5t27.5 149q-99 -151 -333 -151q-53 0 -108 17.5t-108 54t-95 87t-67.5 123t-25.5 155.5zM149 937q0 -22 3.5 -50t13 -66.5t23.5 -76t39 -74.5t56 -65t76.5 -45.5t99.5 -17.5q94 0 165.5 51t107 132.5t35.5 178.5 q0 88 -25.5 165t-68 128.5t-98.5 81t-116 29.5q-50 0 -92.5 -11t-72.5 -28.5t-54 -44t-39 -51.5t-26 -57.5t-16 -56t-7.5 -52.5t-3 -41.5t-0.5 -28.5z" />
<glyph unicode=":" horiz-adv-x="332" d="M115 65q0 31 21 52t53 21q30 0 51 -21t21 -52q0 -30 -21 -50.5t-51 -20.5q-32 0 -53 20.5t-21 50.5zM115 847q0 31 21.5 52.5t52.5 21.5q30 0 51 -21.5t21 -52.5q0 -20 -9.5 -36.5t-26 -26t-36.5 -9.5q-31 0 -52.5 21t-21.5 51z" />
<glyph unicode=";" horiz-adv-x="332" d="M111 65q0 31 21 52t52 21q36 0 62.5 -28.5t26.5 -69.5q0 -51 -13.5 -102.5t-34 -88.5t-43.5 -62.5t-42 -31.5q-6 -3 -9 3q-2 5 5 8q1 0 2 1q20 7 45.5 79.5t25.5 153.5q-9 -6 -25 -6q-31 0 -52 20t-21 51zM111 847q0 31 21 52.5t52 21.5t52 -21.5t21 -52.5 q0 -30 -21.5 -51t-51.5 -21q-31 0 -52 20.5t-21 51.5z" />
<glyph unicode="&#x3c;" horiz-adv-x="1030" d="M0 707v120q37 0 105 18t168.5 61t207.5 104.5t231.5 159.5t231.5 215q-10 -25 -30.5 -63t-59 -93.5t-85.5 -111.5t-113 -115t-138.5 -106.5t-165.5 -82.5t-189 -47q96 -15 189 -52.5t165.5 -85t138.5 -105.5t113 -113.5t85 -109t59 -91.5t31 -62q-90 95 -192.5 179.5 t-196 143.5t-183 106t-163.5 74.5t-127 42t-82 14.5z" />
<glyph unicode="=" horiz-adv-x="1030" d="M80 574v106h801v-106h-801zM80 845v105h801v-105h-801z" />
<glyph unicode="&#x3e;" horiz-adv-x="1030" d="M80 147q10 24 31 62t59 91.5t85 109t113 113.5t138.5 105.5t165.5 85t189 52.5q-96 12 -189 47t-165.5 82.5t-138.5 106.5t-113 115t-85 111.5t-59 93.5t-31 63q107 -117 231 -215t231 -159.5t208 -104.5t168.5 -61t104.5 -18v-120q-35 0 -103 -19.5t-168.5 -63.5 t-208 -106.5t-232 -159.5t-231.5 -211z" />
<glyph unicode="?" horiz-adv-x="701" d="M52 1279q54 60 118 86t153 26q42 0 79 -6.5t77.5 -25t70 -47.5t48 -79t18.5 -115q0 -28 -7.5 -61.5t-26 -74.5t-34.5 -74t-47 -83.5t-49 -79t-54.5 -85t-50.5 -78.5q-44 -69 -65 -118.5t-58 -178.5q-13 79 -13 209q0 55 13 94t46 90q224 347 224 454q0 83 -52 137 t-119 54q-30 0 -55.5 -4.5t-59.5 -21.5t-60 -46t-51.5 -83.5t-40.5 -127.5zM157 65q0 31 22 52t52.5 21t52 -21t21.5 -52q0 -20 -10 -36.5t-27 -25.5t-37 -9q-15 0 -28.5 5.5t-23.5 15t-16 22.5t-6 28z" />
<glyph unicode="@" horiz-adv-x="1444" d="M-38 400q0 171 57 316t158.5 245.5t245 156.5t312.5 56q105 0 197 -21.5t161 -58.5t126 -88t95.5 -109t64.5 -123t38 -128.5t12 -126.5q0 -90 -14 -167t-37.5 -131t-54 -97t-62.5 -69.5t-65 -43.5t-59 -24t-47 -7q-53 0 -96 14.5t-67.5 36.5t-37.5 43.5t-16 40.5 q-4 -5 -12.5 -12t-36.5 -26t-58 -33.5t-76.5 -26t-93.5 -11.5q-74 0 -128.5 24.5t-85.5 67.5t-46 95.5t-15 115.5q0 52 11 106.5t33 109.5t53.5 105t76.5 93.5t98 75.5t121 50t143 18q13 0 28.5 -2t29 -5.5t27 -8t24 -8.5t19 -7.5t12.5 -6.5l5 -2l100 26l-114 -540 q-27 -135 -27 -158q0 -135 127 -135q52 0 100.5 26t85 72t63.5 106t41.5 129.5t14.5 140.5q0 126 -44 235t-122.5 187.5t-193.5 123t-252 44.5q-114 0 -216.5 -28t-188.5 -84.5t-149 -136.5t-98 -190t-35 -239q0 -159 45 -290t127.5 -222.5t198.5 -144t257 -60.5v-36 q-162 0 -300.5 51t-241 144.5t-160.5 235.5t-58 316zM440 327q0 -111 53.5 -180t159.5 -69q52 0 107.5 22t94.5 59l114 540q0 4 -1 12t-8.5 27.5t-20.5 34.5t-40.5 27t-65.5 12q-77 0 -148.5 -37.5t-125.5 -101t-86.5 -154.5t-32.5 -192z" />
<glyph unicode="A" d="M-90 0q41 29 57.5 47.5t28.5 48.5l536 1289q491 -1213 523 -1289q14 -35 33.5 -55.5t67.5 -40.5h-293q54 20 54 61q0 16 -8 35q-118 286 -139 337h-553q-118 -279 -139 -337q-14 -34 -4.5 -58t47.5 -38h-211zM243 502h502q-33 80 -71 174.5t-68.5 172t-56.5 144 t-41 103.5l-14 38q-135 -348 -251 -632z" />
<glyph unicode="B" horiz-adv-x="1042" d="M65 0q54 26 54 90v1184q0 62 -54 91h314q34 0 69.5 -2.5t82 -11t88.5 -22t84 -37t72 -54.5t49 -77t19 -102q0 -45 -14.5 -87.5t-37 -73t-50.5 -57t-55.5 -44t-50 -29.5t-37.5 -18l-14 -5q8 -1 22 -3t54 -12t77 -24.5t81.5 -43.5t76.5 -66t54 -94t22 -125q0 -31 -5 -61 t-17 -63.5t-33 -63.5t-50 -59t-71 -52t-93.5 -41t-120.5 -27.5t-150 -9.5h-366zM245 73q38 -11 119 -11h14q26 -1 43.5 -0.5t55 3t64.5 8t65 16.5t65.5 27t57.5 42t49 58.5t31 78t12 100.5q0 74 -24.5 130.5t-62 89t-91 52.5t-102 27t-104.5 7l-192 -2v-626zM245 770 q31 -4 98 -4h7q21 0 34.5 0.5t43 3t51 7t51.5 14.5t52 24t46 36.5t38.5 50.5t24.5 67.5t10 85.5q0 59 -20 103.5t-50 70.5t-71.5 42t-79 21.5t-76.5 5.5q-51 0 -91 -1t-54 -3l-14 -1v-523z" />
<glyph unicode="C" horiz-adv-x="1375" d="M16 676q0 85 21.5 169t63.5 163t108 146.5t149 118t193 79.5t234 29q78 0 162.5 -18t153.5 -43.5t159 -65.5q2 -18 4 -48t6 -93t6 -104t1 -38q-29 65 -66.5 118.5t-75 89t-81 62.5t-80.5 42t-75.5 24t-65 11.5t-50.5 2.5q-124 0 -227 -33t-175 -90t-121.5 -135 t-73 -167.5t-23.5 -186.5q0 -59 8 -117.5t25 -116t44 -111t62 -101t82.5 -86.5t103 -67.5t125.5 -44t147 -15.5h14q32 0 52.5 0.5t63.5 6.5t76 18t80 37t85 60.5t80.5 91.5t76.5 127q1 3 -4 -63t-10 -133l-6 -67q-114 -74 -249.5 -108t-254.5 -34q-118 0 -230 32t-205.5 93 t-163.5 144t-109.5 191.5t-39.5 229.5z" />
<glyph unicode="D" horiz-adv-x="1362" d="M69 0q52 25 52 90v1184q0 63 -52 91h461q138 0 253 -29t191 -74.5t135 -108t91 -123t52.5 -126.5t26.5 -112t6 -85q0 -65 -13 -131.5t-43 -136.5t-74 -133t-110 -119.5t-147 -97.5t-189.5 -65t-233.5 -24h-406zM249 76q65 -3 291 -3q97 0 179 19t142.5 52.5t108.5 81.5 t79.5 102.5t52 119t29.5 128.5t9 133q0 56 -9.5 112.5t-30 114.5t-51.5 110t-77 98t-102.5 79t-132.5 52.5t-163 19.5q-279 0 -325 -6v-1213z" />
<glyph unicode="E" horiz-adv-x="881" d="M62 0q55 27 55 90v1184q0 61 -55 91h702v-139q-31 35 -70 52t-106 17h-345v-502h349q20 0 41.5 18t28.5 38v-179q-7 21 -28.5 38.5t-41.5 17.5h-349v-642q118 -15 205 -15h11h98t75 2.5t64.5 7.5t47 13.5t42 22.5t30.5 33t31 47l-35 -195h-750z" />
<glyph unicode="F" horiz-adv-x="820" d="M62 0q55 27 55 90v1184q0 61 -55 91h745v-139q-24 35 -66.5 52t-116.5 17h-381v-502h349q20 0 41.5 18t28.5 38v-179q-7 21 -28.5 38.5t-41.5 17.5h-349v-636q0 -64 54 -90h-235z" />
<glyph unicode="G" horiz-adv-x="1440" d="M18 676q0 85 21.5 169t63.5 163t108 146.5t149 118t193 79.5t234 29q113 0 225 -32.5t250 -94.5q17 -275 17 -283q-22 62 -56 114t-71.5 87.5t-81.5 62.5t-84 43t-80 26t-69 13.5t-52 3.5q-124 0 -227 -33t-175 -90t-121.5 -135t-73 -167.5t-23.5 -186.5q0 -59 8 -117.5 t25 -116t44 -111t62 -101t82.5 -86.5t103 -67.5t125 -44t147.5 -15.5q22 0 45.5 1.5t59.5 5.5t73.5 12.5t79 21.5t85 34.5t83.5 48.5v297q0 65 -52 91h233q-53 -26 -53 -91v-234q0 -19 6.5 -43t13.5 -38l7 -14q-116 -74 -286 -115t-293 -41q-118 0 -229.5 32t-205 93 t-163.5 144t-109 191.5t-39 229.5z" />
<glyph unicode="H" horiz-adv-x="1320" d="M65 0q52 25 52 90v1184q0 63 -52 91h232q-52 -28 -52 -91v-481h766v481q0 62 -54 91h236q-55 -28 -55 -91v-1184q0 -65 55 -90h-236q54 26 54 90v638h-766v-638q0 -65 52 -90h-232z" />
<glyph unicode="I" horiz-adv-x="427" d="M67 0q52 25 52 90v1184q0 63 -52 91h232q-52 -28 -52 -91v-1184q0 -65 52 -90h-232z" />
<glyph unicode="J" horiz-adv-x="404" d="M-239 -431q7 2 19.5 7t49 26.5t69.5 50t73.5 81.5t69.5 117.5t49 161.5t20 209v1052q0 61 -55 91h235q-54 -29 -54 -91v-1052q0 -17 -2 -46.5t-13 -88.5t-29 -117t-54.5 -125t-84.5 -120.5t-124 -96.5t-169 -59z" />
<glyph unicode="K" horiz-adv-x="1051" d="M65 0q54 26 54 90v1184q0 62 -54 91h234q-54 -29 -54 -91v-550q88 81 339 329.5t251 267.5q0 9 -0.5 14t-2.5 9t-3.5 6t-7 7t-9.5 8h249q-38 -13 -81 -36t-65 -44l-532 -526l674 -697q39 -42 97 -62h-295q9 6 13.5 10.5t6.5 10t2 8.5v11q0 9 -59.5 75.5t-152.5 164 t-176.5 184.5t-164 169t-83.5 85v-628q0 -64 54 -90h-234z" />
<glyph unicode="L" horiz-adv-x="882" d="M65 0q54 26 54 90v1184q0 62 -54 91h234q-54 -29 -54 -91v-1190q118 -15 205 -15h11h98t75 2.5t64.5 7.5t47 13.5t42 22.5t30.5 33t31 47l-35 -195h-749z" />
<glyph unicode="M" horiz-adv-x="1511" d="M52 1365h193l475 -1139l482 1139h181q-52 -28 -52 -91v-1184q0 -65 52 -90h-232q51 25 51 90v1068q0 11 1 21.5t2 15.5l1 5l-13 -42l-507 -1186l-489 1150l-15 54q4 -36 4 -54v-1032q0 -63 55 -90h-181q55 25 55 90v1184q0 27 -18.5 52t-44.5 39z" />
<glyph unicode="N" horiz-adv-x="1304" d="M12 1365h203l846 -1070v979q0 63 -54 91h183q-54 -29 -54 -91v-1290q-950 1182 -950 1202v-1096q0 -65 55 -90h-181q55 27 55 90v1142q0 32 -2 39.5t-11 23.5q-36 52 -90 70z" />
<glyph unicode="O" horiz-adv-x="1542" d="M20 705q2 77 26.5 158t68.5 157.5t110.5 143.5t147 117t184.5 77q91 24 189 24q15 0 29 -1q82 -3 165.5 -25.5t162 -63.5t146.5 -103t118 -138.5t77 -175.5q24 -86 24 -181q0 -14 -1 -28q-3 -108 -38 -206t-91.5 -171.5t-130 -133t-155.5 -97.5q-80 -38 -164 -56 q-75 -17 -147 -16h-15q-80 3 -158 22.5t-148.5 54.5t-133 82t-112.5 108.5t-85.5 131t-53.5 151.5q-15 70 -15 144v25zM169 709q0 -131 34.5 -241t92.5 -185t133.5 -127.5t155.5 -77t160 -24.5q165 0 294 77.5t200 215.5t71 314q0 115 -26.5 217t-76.5 181t-118.5 136.5 t-156 88t-185.5 30.5q-123 0 -229.5 -42t-183.5 -119t-121 -191.5t-44 -252.5z" />
<glyph unicode="P" horiz-adv-x="912" d="M65 0q54 26 54 90v1184q0 62 -54 91h314q83 0 153.5 -13t120.5 -34.5t90 -52t64.5 -63.5t40.5 -70.5t22.5 -71.5t6.5 -68q0 -62 -19 -118t-45.5 -93.5t-61.5 -69.5t-60.5 -48t-48.5 -27q-28 -13 -69 -23.5t-95 -16.5q-22 -2 -46 -2q-34 0 -70 4q-62 8 -117 34v-542 q0 -64 54 -90h-234zM245 674q44 -17 117 -17q27 0 55 2.5t66 11t71.5 22.5t67.5 39.5t58 59t39.5 84t15.5 112.5q0 103 -39.5 173.5t-113 104.5t-178.5 34q-54 0 -93.5 -1t-52.5 -3l-13 -1v-621z" />
<glyph unicode="Q" horiz-adv-x="1542" d="M16 705q2 77 26.5 158t68.5 157.5t110 143.5t146.5 117t184.5 77q92 24 189 24q14 0 29 -1q82 -3 165.5 -25.5t162 -63.5t146.5 -103t118 -138.5t77 -175.5q24 -89 24 -187v-22q-4 -119 -46 -226t-109 -185t-152.5 -137t-177.5 -90.5t-183 -37.5q101 -70 196.5 -125 t191 -98.5t174 -74t185.5 -67.5q-56 -11 -116 -11q-14 0 -28 1q-76 3 -150.5 17t-151.5 44.5t-149 73.5t-142.5 104t-132.5 136q-106 10 -205.5 49.5t-182.5 104.5t-145 149t-95 191q-28 94 -28 196v25zM165 709q0 -131 35 -241t92.5 -185t133 -127.5t155.5 -77t160 -24.5 q165 0 294 77.5t200 215.5t71 314q0 115 -26.5 217t-76.5 181t-118.5 136.5t-156 88t-185.5 30.5q-123 0 -229 -42t-183.5 -119t-121.5 -191.5t-44 -252.5z" />
<glyph unicode="R" horiz-adv-x="1029" d="M65 0q54 26 54 90v1184q0 62 -54 91h320q81 0 148.5 -12.5t114.5 -32.5t83.5 -48.5t58.5 -58t36 -63t19.5 -61.5t5.5 -55q0 -53 -14.5 -100.5t-38.5 -83.5t-54.5 -65.5t-64.5 -49.5t-66 -31.5t-61 -15.5q29 -8 55 -25t47.5 -42.5t32.5 -40.5t27 -40q22 -39 56.5 -100.5 t113.5 -186t125 -173.5q20 -20 52.5 -40t55.5 -30l23 -10h-156q-27 0 -50.5 8.5t-41.5 23.5t-29 28t-22 30q-53 79 -95 145t-87 140t-63 102q-4 7 -16 26.5t-17 27.5t-16.5 25t-19.5 24.5t-20.5 20t-24 18.5t-26.5 13t-32.5 9.5t-36.5 2.5l-142 -2v-552q0 -64 54 -90h-234z M245 712q68 -3 136 -3q65 0 124 20.5t106.5 59t75 101t27.5 140.5q0 33 -8 67t-28.5 72t-52 67t-83.5 47.5t-117 18.5q-53 0 -98 -2t-64 -3l-18 -2v-583z" />
<glyph unicode="S" horiz-adv-x="876" d="M12 369q16 -47 35.5 -88t51.5 -85.5t70 -75.5t92.5 -51.5t117.5 -20.5q68 0 120.5 22t83 54t49.5 74.5t25.5 78.5t6.5 70q0 46 -7 81.5t-28.5 66t-40 50.5t-60.5 45t-70.5 39t-89.5 42q-15 7 -23 11q-65 30 -112.5 58t-88 61.5t-65.5 69.5t-39 80t-14 95q0 76 33 140.5 t87.5 106.5t125 65t147.5 23q157 0 267 -83l11 -230q-5 27 -21 59.5t-43.5 66.5t-63 61.5t-84 45.5t-100.5 18q-55 0 -98 -15.5t-68.5 -39.5t-42 -56t-22 -60.5t-5.5 -57.5q0 -48 13 -83t48 -69t81.5 -63t127.5 -72q21 -11 59 -30t58.5 -29.5t53 -28.5t50.5 -31t43.5 -33.5 t40 -39t31 -44.5t24.5 -53t14 -61t6 -72q0 -73 -26.5 -137.5t-69.5 -110.5t-98 -80t-113 -50.5t-113 -16.5q-60 0 -115 11.5t-104 35t-74.5 38.5t-65.5 42z" />
<glyph unicode="T" horiz-adv-x="980" d="M-44 1206v159h1009v-159q-10 19 -24 35t-37.5 29.5t-48.5 14.5q-182 10 -329 10v-1205q0 -65 52 -90h-233q53 26 53 90v1205q-67 0 -151 -2.5t-135 -5.5l-50 -2q-35 -2 -62.5 -25t-43.5 -54z" />
<glyph unicode="U" horiz-adv-x="1183" d="M38 1365h257q-64 -35 -64 -91v-857q0 -32 3.5 -62.5t13.5 -67.5t25.5 -69t42.5 -63t63 -52.5t88 -35t115 -13.5q87 0 154 20.5t108 53.5t67 80t36 95t10 103l-3 868q0 63 -52 91h184q-52 -28 -52 -91l-11 -864q-1 -91 -26.5 -164t-67.5 -121t-100 -79.5t-122 -45.5 t-137 -14q-65 0 -128 13.5t-125.5 46t-109.5 80.5t-76 123.5t-29 167.5v857q0 56 -64 91z" />
<glyph unicode="V" horiz-adv-x="890" d="M-197 1365h285q-23 -9 -33.5 -30t-9.5 -45t11 -49l381 -1026l384 1053q16 35 9.5 59t-41.5 38h172q-15 -11 -24 -19t-16 -17.5t-9.5 -14.5t-9 -20.5t-11.5 -25.5q-15 -33 -136 -364.5t-235 -646.5l-114 -315q-470 1250 -502 1326q-14 36 -33.5 57t-67.5 40z" />
<glyph unicode="W" horiz-adv-x="1456" d="M-140 1365h291q-25 -9 -35.5 -30t-8.5 -44t12 -50l383 -1013l157 509q-132 344 -207 531q-7 19 -12.5 29t-16 23.5t-28 24t-42.5 20.5h291q-24 -9 -34 -30t-8.5 -44.5t10.5 -49.5l118 -304l115 331q14 35 8 59t-43 38h176q-38 -28 -48 -41t-25 -56l-147 -421l213 -627 l346 1048q13 36 4 59.5t-46 37.5h200q-5 -3 -14.5 -10t-12.5 -9.5t-10 -7.5t-9 -7.5t-7 -7t-6.5 -8t-5.5 -9t-6 -11t-5 -12t-6 -15.5l-453 -1326q-127 381 -253 704l-231 -704l-488 1287q-12 30 -16 39q-10 24 -18 37.5t-28.5 30t-53.5 29.5z" />
<glyph unicode="X" horiz-adv-x="992" d="M-104 0q46 23 68.5 41t47.5 57q256 356 392 580l-366 590q-5 8 -10.5 15.5t-10 12.5t-11.5 11.5t-10.5 10t-13 9t-12 7.5t-14 8t-14 7t-16.5 8l-16 8h335q-22 -8 -34 -16t-20 -22t-2.5 -35.5t24.5 -50.5l271 -436l284 463q19 25 10 54t-45 43h224q-42 -21 -65.5 -41.5 t-44.5 -55.5l-326 -523l406 -649q31 -51 46 -63.5t67 -32.5h-320q21 7 33.5 15.5t20 22t2.5 34.5t-23 50l-309 494l-342 -520q-9 -18 -10.5 -35.5t9.5 -35t35 -25.5h-240z" />
<glyph unicode="Y" horiz-adv-x="888" d="M-142 1365h322q-1 0 -4 -2q-19 -7 -27.5 -11t-19.5 -14t-11.5 -21.5t5 -30.5t21.5 -45l304 -502l276 529q13 24 16.5 39.5t-3.5 26t-17 17t-32 14.5h225q-30 -15 -48.5 -27.5t-33.5 -29t-28 -40.5l-324 -609v-569q0 -56 71 -90h-280q73 35 73 90v563l-369 615 q-21 34 -45.5 54t-70.5 43z" />
<glyph unicode="Z" horiz-adv-x="963" d="M-40 0l762 1295q-58 0 -149 2q-91 3 -143 3h-27q-41 0 -88 -2q-62 -2 -103 -6.5t-68 -14.5q-42 -16 -77.5 -47t-48.5 -58v193h901l-760 -1292q6 0 63 -1.5t118.5 -1.5t138.5 1t153 7t132 16q46 8 77.5 37.5t47.5 61.5v-193h-929z" />
<glyph unicode="[" horiz-adv-x="433" d="M92 -255v1791h308v-25h-178v-1744h180v-22h-310z" />
<glyph unicode="\" horiz-adv-x="958" d="M0 1365h98q40 -94 209.5 -380.5t359.5 -597.5t233 -387h-99q-33 72 -148 270.5t-238.5 402t-249 412t-165.5 280.5z" />
<glyph unicode="]" horiz-adv-x="433" d="M32 -233h179v1744h-177v25h307v-1791h-309v22z" />
<glyph unicode="^" horiz-adv-x="932" d="M199 1002q-7 6 126 125.5t142 119.5q13 0 144.5 -119t125.5 -126q-5 -6 -72.5 26.5t-132.5 66.5l-65 35l-170 -89q-92 -45 -98 -39z" />
<glyph unicode="_" horiz-adv-x="1203" d="M-12 -136h1226v-61h-1226v61z" />
<glyph unicode="`" horiz-adv-x="454" d="M50 1188q0 25 16.5 42t42.5 17q35 0 77 -57l109 -123q52 -61 48 -65q-5 -6 -63.5 24t-114.5 62l-56 32q-59 28 -59 68z" />
<glyph unicode="a" horiz-adv-x="816" d="M8 224q0 146 132 226q35 21 102.5 44t127.5 39t116 39.5t76 47.5v81q0 31 -10 61t-30 58t-58 44.5t-89 16.5q-37 0 -69 -7.5t-56 -19.5t-45.5 -33t-37 -42.5t-31 -53t-26 -59.5t-24.5 -68l-6 231q5 3 13 10q32 25 51 38t53.5 30t77 24.5t96.5 7.5q39 0 75.5 -5.5 t78.5 -22t72.5 -42t50.5 -71t20 -103.5v-563v-8q0 -20 1 -29.5t6 -22t18 -19t35 -9.5l-102 -60q-26 19 -38 32.5t-19 43.5t-7 82q-147 -156 -323 -156q-51 0 -92.5 17.5t-66.5 44t-42 60t-23.5 62.5t-6.5 54zM122 253q0 -86 43.5 -132.5t123.5 -46.5q153 0 273 127v339 q-19 -10 -38 -18.5t-45.5 -17.5t-42 -14t-56.5 -18t-59 -18q-45 -14 -78 -30.5t-62 -40t-44 -56.5t-15 -74z" />
<glyph unicode="b" horiz-adv-x="946" d="M26 1333l181 48v-569q36 33 66.5 54.5t65 39t73 25.5t82.5 8q74 0 137 -29t105.5 -76.5t73 -108.5t44 -124t13.5 -124q0 -68 -16.5 -135.5t-53 -132t-88.5 -114t-129.5 -79.5t-169.5 -30q-41 0 -88 11t-85.5 26.5t-71 31t-51.5 26.5l-18 11v1162q0 21 -5 35t-16 22.5 t-19 11.5t-23 8q-5 1 -7 2zM207 165q1 -3 3.5 -7.5t13 -17.5t22.5 -24.5t33.5 -26t45.5 -25t59 -17.5t74 -7q33 0 69 13t75 45t70 79.5t51 124.5t20 171q0 86 -20 153.5t-50.5 108.5t-71.5 67.5t-78.5 36.5t-74.5 10q-63 0 -129.5 -23.5t-111.5 -78.5v-582z" />
<glyph unicode="c" horiz-adv-x="814" d="M20 458q0 60 16 124.5t52 128.5t86.5 114.5t127 82t165.5 31.5q54 0 117 -20t100 -40l36 -20v-237q-23 77 -65 136t-99 93t-119 34q-45 0 -84.5 -13.5t-69.5 -37t-54.5 -55.5t-41 -68t-28 -75.5t-16.5 -77.5t-5 -74q0 -78 21.5 -149.5t61 -129t103.5 -91.5t143 -34 q44 0 85 9.5t68 21.5t56 32t42 31.5t33 30.5l6 6q-2 -19 -14 -45t-38 -58t-61 -59t-89 -45t-115 -18q-84 0 -155 29.5t-119 77.5t-82 110t-49 126.5t-15 128.5z" />
<glyph unicode="d" horiz-adv-x="936" d="M20 484q0 60 17.5 122.5t54.5 122t89 106.5t127.5 75.5t162.5 28.5q119 0 197 -72v387q0 21 -5 35t-16.5 22.5t-20 12t-24.5 7.5q-4 1 -6 2l183 48v-1268q0 -21 5 -35t16.5 -22t19.5 -11.5t24 -8.5q4 -1 7 -2l-173 -48l-6 112q-23 -25 -62.5 -50t-93.5 -43.5t-102 -18.5 q-89 0 -159 31t-113 80.5t-71.5 116.5t-39.5 133.5t-11 136.5zM144 477q0 -79 15.5 -145t42 -110t58.5 -76.5t68 -50t67 -25.5t59 -8q59 0 117.5 29t96.5 64v609q-27 48 -75.5 82.5t-115.5 34.5q-71 0 -131.5 -27.5t-105.5 -78t-70.5 -127.5t-25.5 -171z" />
<glyph unicode="e" horiz-adv-x="886" d="M20 454q0 60 16 125t52 129.5t86.5 115.5t127 83t165.5 32q44 0 89.5 -13.5t91.5 -44t81.5 -74.5t58 -112t22.5 -149h-657q0 -10 -1 -32t-1 -32q0 -183 86.5 -293.5t244.5 -110.5q69 0 140.5 35.5t121.5 86.5t68 101q-4 -61 -33 -118t-75.5 -100.5t-111.5 -70t-136 -26.5 q-85 0 -158 29t-123 76.5t-86 109t-52.5 126t-16.5 127.5zM159 598h525q0 80 -20.5 138t-57 89.5t-78 45.5t-91.5 14q-62 0 -112 -24t-83 -66t-53.5 -91t-29.5 -106z" />
<glyph unicode="f" horiz-adv-x="423" d="M0 855v60h107v187q0 128 66.5 203.5t179.5 75.5q50 0 82 -11.5t69 -40.5v-157q-11 59 -53.5 109t-90.5 50q-143 0 -143 -197v-219h279v-60h-279v-781q0 -31 12.5 -45.5t40.5 -28.5h-216q14 7 22 12t16 13.5t11.5 20.5t3.5 28v781h-107z" />
<glyph unicode="g" horiz-adv-x="860" d="M-6 -237q0 35 11.5 65t25.5 49.5t41 40t43.5 30.5t46.5 26l12 6q-4 1 -10.5 2.5t-23.5 9t-29.5 18t-23.5 30.5t-11 44q0 88 165 183q-93 40 -148 122.5t-55 196.5q0 60 20 115.5t55 97.5t79 74t94 49t99 17q94 0 145 -22h301v-60h-207q60 -51 92.5 -121.5t32.5 -143.5 q0 -71 -27.5 -135.5t-74.5 -112t-114 -75.5t-144 -28q-10 0 -33.5 2.5t-36.5 1.5q-57 -3 -97 -27t-40 -65q0 -34 38.5 -48.5t134.5 -16.5l179 -2q276 -6 276 -195q0 -94 -63.5 -175.5t-174.5 -130.5t-243 -49q-44 0 -88.5 7.5t-89.5 25t-79.5 42.5t-56 64.5t-21.5 87.5z M82 -209q0 -32 18.5 -64t54 -60.5t97.5 -46.5t141 -18q146 0 236.5 69.5t90.5 173.5q0 34 -15.5 59t-36.5 38t-49 20.5t-46 9.5t-35 2q-92 0 -187.5 3t-97.5 3q-72 -25 -121.5 -77.5t-49.5 -111.5zM159 600q0 -73 14 -129t36.5 -89t53 -53.5t58.5 -28t58 -7.5 q40 0 75.5 10.5t66.5 33.5t53.5 57t35 83t12.5 109q0 154 -63.5 229.5t-167.5 75.5q-112 0 -172 -75t-60 -216z" />
<glyph unicode="h" horiz-adv-x="952" d="M30 1333l183 48v-592l23 19q24 20 35.5 28t38 27t47 29.5t48.5 23t55.5 18t54.5 5.5q52 0 102.5 -18t92.5 -50t68.5 -83.5t26.5 -113.5v-600q0 -31 11.5 -45.5t40.5 -28.5h-213q28 14 40.5 28.5t12.5 45.5v528q0 52 -11.5 94t-38 77.5t-74.5 55.5t-115 20 q-46 0 -96.5 -18t-89.5 -44t-59 -54v-659q0 -31 12.5 -45.5t41.5 -28.5h-217q28 14 40 28.5t12 45.5v1180q0 21 -5 35.5t-16.5 22.5t-20 11.5t-24.5 7.5q-4 1 -6 2z" />
<glyph unicode="i" horiz-adv-x="368" d="M30 891l183 48v-865q0 -31 12.5 -45.5t41.5 -28.5h-217q28 14 40 28.5t12 45.5v738q0 21 -5 35.5t-16.5 22.5t-20 11.5t-24.5 7.5q-4 1 -6 2zM88 1264q0 30 22 51.5t52.5 21.5t51.5 -21.5t21 -51.5q0 -31 -21 -52.5t-51.5 -21.5t-52.5 21.5t-22 52.5z" />
<glyph unicode="j" horiz-adv-x="346" d="M-172 -203q13 -55 31.5 -88t46 -50t66.5 -17q33 0 58 17t36.5 41.5t18 48.5t6.5 41l1 17v1005q0 53 -44 70q-6 2 -28 9l183 48v-1073q0 -113 -69.5 -194.5t-161.5 -81.5q-17 0 -31 1.5t-24 3t-20.5 5t-16.5 6t-14.5 7.5t-12.5 8t-12.5 9.5t-12.5 9.5v157zM78 1264 q0 30 22.5 51.5t52.5 21.5q20 0 36.5 -10t25.5 -26.5t9 -36.5q0 -21 -9 -38t-25.5 -26.5t-36.5 -9.5q-31 0 -53 21.5t-22 52.5z" />
<glyph unicode="k" horiz-adv-x="785" d="M30 1333l183 48v-881q20 19 105.5 101t160.5 155l75 73q32 34 24.5 55.5t-48.5 32.5h267q-10 -5 -35.5 -18t-37.5 -19.5t-31.5 -19.5t-35.5 -27q-56 -50 -139.5 -128t-139.5 -131l-57 -53l436 -431l7 -7q16 -16 25 -23.5t24 -19.5t31 -21t37 -19h-289q22 8 33 22t10 27 t-11 24l-411 406v-405q0 -31 12.5 -45.5t41.5 -28.5h-217q28 14 40 28.5t12 45.5v1180q0 21 -5 35.5t-16.5 22.5t-20 11.5t-24.5 7.5q-4 1 -6 2z" />
<glyph unicode="l" horiz-adv-x="370" d="M30 1333l183 48v-1307q0 -31 12.5 -45.5t41.5 -28.5h-217q28 14 40 28.5t12 45.5v1180q0 21 -5 35.5t-16.5 22.5t-20 11.5t-24.5 7.5q-4 1 -6 2z" />
<glyph unicode="m" horiz-adv-x="1522" d="M30 893l183 49v-153q4 3 33.5 29t51 41.5t56 36.5t71 32t73.5 11q90 0 170 -50.5t107 -137.5q33 45 81 86t111.5 71.5t120.5 30.5q52 0 102.5 -18t92.5 -50t68 -83.5t26 -113.5v-600q0 -31 12 -45.5t40 -28.5h-213q20 9 29.5 16t17 22t7.5 36v528q0 52 -11.5 94 t-37.5 77.5t-74 55.5t-115 20q-44 0 -91 -20t-87 -53.5t-69 -74.5q2 -10 2 -27v-600q0 -31 12 -45.5t40 -28.5h-213q28 14 40 28.5t12 45.5v528q0 247 -238 247q-67 0 -130.5 -35.5t-96.5 -80.5v-659q0 -31 12.5 -45.5t41.5 -28.5h-217q28 14 40 28.5t12 45.5v738 q0 14 -2 24.5t-7 18t-8 12.5t-12.5 9.5t-12.5 6t-15 5.5z" />
<glyph unicode="n" horiz-adv-x="932" d="M30 891l183 48v-150q14 18 40.5 41t64 48.5t86 43t94.5 17.5q52 0 102.5 -18t92.5 -50t68 -83.5t26 -113.5v-600q0 -31 12 -45.5t40 -28.5h-213q28 14 40 28.5t12 45.5v528q0 247 -238 247q-65 0 -124.5 -34.5t-102.5 -81.5v-659q0 -31 12.5 -45.5t41.5 -28.5h-217 q28 14 40 28.5t12 45.5v738q0 21 -5 35.5t-16.5 22.5t-20 11.5t-24.5 7.5q-4 1 -6 2z" />
<glyph unicode="o" horiz-adv-x="923" d="M18 467q0 67 18.5 134t54.5 128t84.5 108t115.5 74.5t142 27.5q86 -1 156 -30t116.5 -76t78.5 -110t45.5 -129t13.5 -134q-1 -66 -20 -133.5t-55.5 -128t-86 -108t-116 -76t-140.5 -28.5q-82 1 -151.5 30t-116 77t-79 110.5t-46.5 129.5q-14 63 -14 125v9zM142 450 q3 -61 16 -119.5t38 -112t60 -93.5q34 -41 84 -63q45 -21 99 -20h9q58 3 105.5 30t78.5 69.5t52 98.5q20 54 28 114q5 42 5 86q0 17 -1 35q-3 62 -16 121t-38 112.5t-59.5 93.5t-84.5 62q-45 21 -97 21h-9q-72 -4 -127 -43.5t-86 -103.5q-31 -62 -45 -136q-12 -61 -13 -125 q0 -14 1 -27z" />
<glyph unicode="p" horiz-adv-x="944" d="M32 891l175 48v-136q33 46 113.5 91t167.5 45q48 0 97.5 -15.5t101 -52t91 -89.5t64.5 -136.5t25 -183.5q0 -61 -16.5 -125t-52.5 -127t-87 -112.5t-125.5 -80.5t-162.5 -31q-124 0 -214 46v-411q0 -31 12 -45t42 -28h-217q19 9 28.5 16.5t16.5 21.5t7 35v1191 q0 28 -10 44.5t-20.5 21.5t-30.5 11q-3 1 -5 2zM209 155q87 -117 210 -117q144 0 233 111t89 313q0 60 -8.5 111.5t-24 89t-35 67.5t-44 50t-48 34.5t-49.5 22t-47.5 11t-42.5 3.5q-67 0 -132.5 -34.5t-100.5 -81.5v-580z" />
<glyph unicode="q" horiz-adv-x="912" d="M20 437q0 70 18 140t57.5 135.5t94.5 115.5t134 80.5t172 30.5q33 0 75.5 -11t68.5 -22l26 -11q10 4 36 11.5t47 13.5l21 5v-1304q0 -21 7.5 -35t17.5 -21.5t30 -16.5h-216q28 14 40 28t12 45v463q-60 -50 -114 -74t-137 -24q-81 0 -147 26.5t-110.5 71t-75 103.5 t-44 121.5t-13.5 128.5zM147 460q0 -80 20 -151t57 -126t96.5 -86.5t133.5 -31.5q59 0 116 23.5t91 64.5v600q-2 5 -4.5 13.5t-15.5 30t-30.5 38.5t-52 30.5t-76.5 13.5q-61 0 -119.5 -26.5t-107 -76.5t-78.5 -132t-30 -184z" />
<glyph unicode="r" horiz-adv-x="547" d="M30 891l183 48v-179q33 54 101 116.5t117 62.5q17 0 28.5 -1.5t15.5 -2.5t12.5 -5.5t14.5 -6.5v-124q-21 13 -30.5 18t-27.5 9.5t-40 4.5q-96 0 -191 -128v-629q0 -31 12.5 -45.5t41.5 -28.5h-217q28 14 40 28.5t12 45.5v738q0 21 -5 35.5t-16.5 22.5t-20 11.5t-24.5 7.5 q-4 1 -6 2z" />
<glyph unicode="s" horiz-adv-x="632" d="M6 84v229q17 -73 49.5 -131t85 -96t116.5 -38q44 0 79.5 13.5t56.5 34t35.5 45.5t20 46t5.5 37q0 21 -4.5 39t-10 31.5t-19.5 28.5t-24 24.5t-33 24.5t-36.5 23t-45 26.5t-48.5 28.5q-115 68 -159 122.5t-44 137.5q0 27 8 55.5t27.5 60t48 56t75.5 41t104 16.5 q99 0 201 -70v-205q-12 44 -29.5 81t-43 70t-63 52.5t-81.5 19.5q-71 0 -113.5 -43t-42.5 -91q0 -26 7.5 -48t18.5 -38t36.5 -36t46.5 -33t63 -38q4 -3 11 -7q32 -19 48 -29t44.5 -28.5t44 -31.5t37.5 -33t34 -38.5t24.5 -41t18 -48t5.5 -52.5q0 -61 -28 -112t-73 -84 t-100 -51t-112 -18q-32 0 -64.5 8t-52.5 15.5t-51.5 26.5t-38 23.5t-34.5 24.5z" />
<glyph unicode="t" horiz-adv-x="507" d="M16 857l181 223v-163h293v-60h-295v-592q0 -52 12.5 -91.5t31.5 -61.5t45 -35.5t48 -18t45 -4.5q18 0 33 1.5t27.5 5.5t21 6.5t18 9t13.5 9.5t13 11t11 10q0 -39 -58.5 -80t-124.5 -41q-49 0 -92 15.5t-77 46.5t-54 83.5t-20 121.5v604h-72z" />
<glyph unicode="u" horiz-adv-x="936" d="M18 891l183 48v-581q0 -128 60.5 -205t159.5 -77q40 0 72 7.5t62 24.5t48.5 30.5t51.5 41.5q9 7 13 11v621q0 21 -5 35t-16 22t-19 11.5t-24 8.5q-4 1 -6 2l181 48v-807q0 -39 18 -68.5t62 -35.5l-124 -42q-23 16 -31 23t-19 23t-14 37.5t-3 56.5q-121 -140 -293 -140 q-34 0 -69.5 9.5t-75.5 35.5t-70.5 65.5t-51 106.5t-20.5 152v457q0 21 -5 35t-16 22t-19 11.5t-24 8.5q-4 1 -6 2z" />
<glyph unicode="v" horiz-adv-x="699" d="M-94 915h261q-61 -23 -61 -63q0 -12 5 -25l234 -618l243 614q6 14 8 25.5t-0.5 20t-6.5 15t-14 12.5t-19 10t-24 9h217q-15 -7 -25.5 -14t-21.5 -17t-20 -24.5t-18 -34.5l-351 -841l-317 833q-16 44 -35.5 67t-54.5 31z" />
<glyph unicode="w" horiz-adv-x="1185" d="M-94 917h283q-76 -22 -76 -67q0 -10 4 -21l204 -603l213 567l-22 50q-14 32 -38 49t-70 25h312q-30 -7 -49.5 -19.5t-26.5 -30t0 -38.5l205 -596l241 581q5 14 5 27q0 18 -10 36q-18 30 -55 40h226q-18 -8 -35 -20.5t-29 -27t-21 -28.5t-15 -27l-345 -828l-243 713 l-267 -713l-297 833q-15 40 -37 63t-57 35z" />
<glyph unicode="x" horiz-adv-x="709" d="M-147 0q39 11 80.5 39t58.5 53l269 372l-267 367q-28 39 -45 54t-56 32h289q-18 -7 -27 -11t-20 -13.5t-12.5 -20t4.5 -28t22 -39.5l182 -253l190 267q21 31 8.5 59.5t-50.5 38.5h235q-38 -19 -60 -37.5t-45 -48.5l-241 -325l296 -420q10 -14 20 -24.5t21.5 -19t20 -13.5 t24.5 -14t25 -15h-291q18 7 27 11t19 13.5t11 20t-5 28t-22 40.5l-213 301l-241 -328q-12 -24 -12 -42q0 -33 44 -44h-239z" />
<glyph unicode="y" horiz-adv-x="724" d="M-78 915h283l-9 -3q-17 -6 -25.5 -10t-20 -12.5t-15 -18.5t-2.5 -27t9 -39l222 -619q165 371 258 619q9 23 9 42q0 53 -73 68h243q-26 -13 -42 -23t-31.5 -26.5t-22.5 -36.5q-42 -105 -245.5 -569t-315.5 -735h-154q20 10 35 19.5t26.5 20.5t19 18t15.5 20.5t11.5 19.5 t12.5 23.5t12 24.5q25 47 52 102.5t71 149.5t60 127l-289 779q-8 21 -13.5 33.5t-16 21t-15 11.5t-23 10t-26.5 10z" />
<glyph unicode="z" horiz-adv-x="747" d="M-24 0l530 857q-43 1 -115 1h-78q-128 0 -194 -3q-43 -2 -66.5 -18t-36.5 -44l7 124h647l-526 -857q301 0 446 9q21 1 37.5 6t26 10t18.5 16.5t12 17t9 19.5t8 17l-6 -155h-719z" />
<glyph unicode="{" horiz-adv-x="441" d="M-2 662q15 5 27.5 12.5t21.5 14.5t16 20t11.5 21t7.5 26t5 26.5t2.5 30t0.5 30v33v31.5v391q0 60 13.5 102t37.5 67.5t65 40t87 19.5t113 5l-24 -9q-23 -8 -33.5 -12t-28.5 -11.5t-26 -13t-21 -14.5t-18.5 -18.5t-12.5 -22.5t-10 -28.5t-5.5 -35.5t-2.5 -44v-392 q0 -130 -34 -188t-123 -81q91 -23 124 -84.5t33 -198.5v-423q0 -40 10.5 -71.5t25 -51.5t41.5 -37.5t48.5 -26.5t56.5 -22q-64 0 -109.5 4.5t-82 15.5t-59 29t-38 47t-21.5 66.5t-6 90.5v416q0 14 0.5 37t0.5 37t-0.5 33.5t-2.5 32.5t-6 28.5t-11 26t-16.5 21.5t-24 18.5 t-32.5 11.5z" />
<glyph unicode="|" horiz-adv-x="339" d="M122 -213v1672h89v-1672h-89z" />
<glyph unicode="}" horiz-adv-x="441" d="M24 -253q29 10 47.5 18t42 20.5t37.5 27.5t27.5 35t20 47t6.5 61v423q0 136 33.5 198t125.5 85q-61 16 -95 45.5t-49 82.5t-15 141v392q0 27 -2 48.5t-8 39t-11.5 29.5t-18 23.5t-21 18t-28 15t-31.5 13t-38 14.5q-15 5 -23 8q48 0 83.5 -2.5t69.5 -9t58 -17.5t45 -28.5 t33 -42t19 -58t7 -76.5v-391v-25v-42.5t1.5 -40t5 -37t10.5 -33.5t16.5 -28.5t25 -22.5t35.5 -16q-18 -4 -32.5 -11.5t-24.5 -18.5t-17 -21.5t-11 -26t-6.5 -28.5t-3 -33t-0.5 -33.5t0.5 -36.5t0.5 -37v-416q0 -53 -6 -90.5t-21 -66.5t-37.5 -47t-59 -29t-81.5 -15.5 t-110 -4.5z" />
<glyph unicode="~" horiz-adv-x="932" d="M191 1054q2 11 20 31.5t44.5 42t63 37t70.5 15.5q27 0 101.5 -30t101.5 -30q29 0 53.5 10.5t35.5 21.5l10 10l35 -14q-3 -5 -10 -12t-27.5 -26t-41.5 -33t-50.5 -25.5t-56.5 -11.5q-39 0 -82.5 17t-76.5 33.5t-48 16.5q-25 0 -52 -14.5t-41 -29.5l-14 -15z" />
<glyph unicode="&#xa1;" horiz-adv-x="421" d="M73 -237q0 22 16 210.5t38.5 412t35.5 309.5q18 -129 54 -512.5t36 -419.5q0 -211 -90 -211q-49 0 -69.5 53.5t-20.5 157.5zM88 867q0 20 10 36.5t27 26t38 9.5q30 0 51 -21t21 -51q0 -31 -21 -52.5t-51 -21.5q-32 0 -53.5 21.5t-21.5 52.5z" />
<glyph unicode="&#xa2;" horiz-adv-x="806" d="M10 664q0 47 10 97t29.5 101.5t51.5 98t73.5 85t98.5 64.5t122 34q0 32 -1 87.5t-1 76.5h65l-2 -160q54 0 118 -20t100 -40l36 -20v-237q-34 110 -102 181t-154 80q0 -126 1 -406.5t1 -394.5q45 0 88 10.5t70 22t58.5 34.5t41.5 32.5t33 30.5q-2 -18 -13 -43t-34.5 -56.5 t-55.5 -58t-81.5 -46t-106.5 -22.5l2 -165h-65q2 65 2 165q-78 6 -143.5 37.5t-109.5 79t-74.5 107.5t-44 122t-13.5 123zM128 693q0 -96 29 -178.5t90.5 -142.5t147.5 -77q0 111 1.5 391t1.5 406q-41 -4 -77.5 -20t-63.5 -40.5t-49 -56t-36.5 -66t-24.5 -72.5t-14.5 -73.5 t-4.5 -70.5z" />
<glyph unicode="&#xa3;" horiz-adv-x="785" d="M4 -14q213 256 213 428q0 108 -41 220h-166v63h143q-10 25 -35 86.5t-36.5 93.5t-22.5 81.5t-11 93.5q0 56 25 114t70.5 106t117 78.5t155.5 30.5q56 0 127.5 -24t142.5 -66l-10 -223q-6 29 -18.5 60t-36 66.5t-52 63t-71 45.5t-90.5 18q-38 0 -70 -8.5t-55 -22.5 t-42 -33.5t-30.5 -40.5t-19.5 -44.5t-11.5 -44.5t-3.5 -41q0 -63 20 -125.5t57 -142.5t52 -121q54 1 99 3t74.5 5.5t52 7t34.5 7.5l19.5 6.5t9.5 4.5l2 2v-131q-1 1 -4.5 2.5t-21 6.5t-44 9t-80 8t-123.5 6q14 -63 14 -117q0 -73 -24.5 -149.5t-62.5 -135.5t-77 -103 t-73 -67q120 64 275 64q40 0 107 -4.5t94 -4.5q49 0 93 15.5t72 38.5q-15 -24 -31 -53.5t-32.5 -62.5l-22.5 -45q-59 -24 -136 -24q-48 0 -137 15t-129 15q-49 0 -76.5 -1t-80.5 -8t-92 -21z" />
<glyph unicode="&#xa4;" horiz-adv-x="1103" d="M2 572l22 62h150v44q0 54 2 79h-172l22 62h154q32 270 177 414t380 144q54 0 117 -20t99 -40l37 -20v-238q-35 117 -112.5 190.5t-170.5 73.5q-151 0 -252 -130.5t-122 -373.5h201q90 0 160.5 4t107 9t60.5 10t31 9l7 4l-57 -131q-2 4 -13.5 9.5t-95.5 14.5t-226 9h-177 q-2 -16 -2 -52q0 -48 2 -71h125q89 0 159.5 4t107.5 9t61 10.5t31 9.5l6 3l-57 -130q-1 4 -12.5 9t-96 14t-226.5 9h-94q10 -91 34 -166t57 -125.5t71.5 -88t81 -58.5t81.5 -30.5t77 -9.5q51 0 98.5 12t84.5 32t61.5 38t44.5 37q-2 -20 -13.5 -45.5t-39 -58t-65.5 -58.5 t-100 -44.5t-136 -18.5q-96 0 -176 33.5t-134 89t-94 132.5t-60.5 158t-29.5 171h-176z" />
<glyph unicode="&#xa5;" horiz-adv-x="806" d="M-178 1365h322q-1 0 -4 -2q-19 -7 -27.5 -11t-19.5 -14t-11.5 -21t5.5 -30.5t22 -45.5l303 -502l276 529q10 19 14 33t3 23.5t-9 17t-17 12t-26 11.5h224q-45 -22 -68 -42t-43 -55l-308 -584h260v-66h-274v-158h274v-69h-274v-301q0 -56 70 -90h-279q72 35 72 90v301 h-313v69h313v158h-313v66h295l-351 584q-20 33 -46 53.5t-70 43.5z" />
<glyph unicode="&#xa6;" horiz-adv-x="339" d="M122 -213v661h89v-661h-89zM122 797v662h89v-662h-89z" />
<glyph unicode="&#xa7;" horiz-adv-x="762" d="M26 626q2 81 62 147.5t149 85.5q-83 57 -119.5 122t-35.5 145q0 25 8.5 55.5t28.5 64t49.5 60.5t76.5 44.5t104 16.5q112 0 217 -74l-4 -205q-11 41 -30.5 79.5t-47.5 71.5t-67.5 53t-83.5 20q-47 1 -85.5 -24.5t-57 -59t-18.5 -64.5q-1 -63 41 -117t130 -108 q18 -11 51 -30t57.5 -33t57 -36t56 -41.5t48.5 -47t40.5 -55t25.5 -63t9 -73.5q-1 -83 -60 -148t-149 -87q98 -76 131.5 -141t33.5 -156q0 -19 -6.5 -42t-20 -50.5t-38 -52.5t-56 -46t-79 -33.5t-103.5 -12.5q-31 0 -67 5.5t-85.5 23.5t-88.5 46l4 203q8 -32 24.5 -63.5 t40 -60.5t52 -51t63.5 -35.5t71 -13.5q41 0 77 15t59 38t36 48.5t15 47.5q4 67 -39.5 133.5t-127.5 117.5q-18 11 -51.5 30.5t-58.5 33.5t-58 36t-57 41.5t-49 47t-40.5 55t-25 63.5t-9.5 74zM138 636q0 -24 7.5 -47t18 -41t31.5 -38t37 -33.5t46.5 -33t48 -29.5t51.5 -30 q9 -4 13 -7q39 0 71 11t53 29t36 41.5t22 46t7 43.5q0 19 -5 38t-11.5 34t-21.5 32t-25.5 28.5t-34 28t-35.5 25t-40.5 25t-40 23t-43.5 23.5q-47 1 -84 -15.5t-57.5 -43t-31.5 -55t-12 -55.5z" />
<glyph unicode="&#xa8;" horiz-adv-x="505" d="M24 1120q0 31 21.5 52t52.5 21q30 0 51.5 -21.5t21.5 -51.5q0 -31 -22 -52.5t-53 -21.5q-21 0 -37 9.5t-25.5 26.5t-9.5 38zM283 1120q0 20 10 36.5t27 26.5t38 10q19 0 35.5 -10t26 -26.5t9.5 -36.5q0 -21 -9.5 -38t-25.5 -26.5t-36 -9.5q-32 0 -53.5 21.5t-21.5 52.5z " />
<glyph unicode="&#xa9;" horiz-adv-x="1617" d="M92 662q0 148 57 281.5t153 229.5t228.5 153t277.5 57q147 0 280.5 -57t230 -153t154 -229.5t57.5 -281.5q0 -145 -57.5 -277t-154 -227.5t-230 -151.5t-280.5 -56q-145 0 -277.5 56t-228.5 151.5t-153 227.5t-57 277zM153 662q0 -133 51.5 -254t139.5 -209t209.5 -139.5 t254.5 -51.5q136 0 258 51.5t210 139.5t139.5 209t51.5 254q0 110 -33 211.5t-93.5 182.5t-141 141.5t-181.5 93t-210 32.5q-107 0 -207 -32.5t-180.5 -93t-141 -141.5t-93.5 -182.5t-33 -211.5zM347 661q0 101 35 191t97.5 157t154.5 106t201 39q171 0 309 -95l-58 -78 q-63 42 -120.5 59.5t-128.5 18.5q-90 2 -164 -29.5t-121.5 -87t-73.5 -128t-26 -153.5q0 -80 26.5 -151t75 -124t121.5 -84.5t160 -31.5q74 0 134.5 17t120.5 56l52 -76q-51 -35 -100 -55.5t-98 -29t-109 -8.5q-74 0 -140.5 17.5t-120 49t-96.5 75.5t-71.5 98t-44 116.5 t-15.5 130.5z" />
<glyph unicode="&#xaa;" horiz-adv-x="531" d="M6 942q0 87 84 134q29 16 141.5 47.5t134.5 54.5v48q0 43 -29 76t-92 33q-42 0 -73 -11.5t-52.5 -37t-34.5 -51.5t-29 -69l-4 138q22 16 27.5 20.5t27 16.5t36.5 16.5t41.5 9t56.5 4.5q25 0 49 -3.5t50.5 -13.5t46.5 -25.5t33 -42.5t13 -62v-337q0 -15 0.5 -20.5t4 -14.5 t12 -13t23.5 -6l-65 -36q-25 16 -33.5 33t-8.5 63q-96 -96 -211 -96q-41 0 -72 15.5t-46.5 40t-23 47t-7.5 42.5zM80 959q0 -52 28 -80t81 -28q100 0 177 76v203q-35 -16 -157 -50q-63 -19 -96 -46t-33 -75z" />
<glyph unicode="&#xab;" horiz-adv-x="1003" d="M153 494v159q20 0 53.5 9t85.5 35t106 64.5t117.5 105.5t118.5 150q-6 -21 -20 -55t-37.5 -82.5t-58 -96.5t-75 -92t-95 -75.5t-111.5 -41.5q50 -11 97 -38t84 -61t70.5 -76t57.5 -81.5t43 -78.5t29.5 -66t15.5 -45q-55 82 -119 148.5t-118.5 105.5t-106.5 65.5t-85 36.5 t-52 10zM466 494v159q13 0 34 4.5t52.5 16.5t66 30t76.5 47t83 65.5t85.5 88.5t84.5 112q-6 -21 -20 -55t-38 -82.5t-58.5 -96.5t-75.5 -92t-95 -75.5t-111 -41.5q57 -13 111 -46.5t95 -77.5t75.5 -91.5t58.5 -94.5t38 -80.5t20 -55.5q-55 82 -119 148.5t-119 105.5 t-107 65.5t-85.5 36.5t-51.5 10z" />
<glyph unicode="&#xac;" horiz-adv-x="663" d="M-42 325l540 590v-520h159v-70h-159v-267q0 -40 42 -58h-172q44 18 44 58v267h-454zM86 395h326v358z" />
<glyph unicode="&#xad;" horiz-adv-x="1670" />
<glyph unicode="&#xae;" horiz-adv-x="782" d="M28 1005q0 102 50 188.5t136 137t188 50.5t188.5 -50.5t137.5 -137t51 -188.5q0 -103 -51 -190.5t-137.5 -138t-188.5 -50.5t-188 50.5t-136 138t-50 190.5zM52 1005q0 -96 47 -178t127.5 -129t175.5 -47q72 0 136.5 28t110.5 75.5t73 113t27 137.5t-27 137t-73 112.5 t-111 75.5t-136 28q-95 0 -175.5 -47t-127.5 -128.5t-47 -177.5zM222 803v405h228q159 0 159 -120q0 -59 -46.5 -94t-95.5 -27l127 -164h-46l-123 164h-166v-164h-37zM259 998h199q21 0 37 2.5t34 11t27.5 28t9.5 48.5q2 90 -112 88h-4h-191v-178z" />
<glyph unicode="&#xaf;" horiz-adv-x="932" d="M172 1086v74h623v-74h-623z" />
<glyph unicode="&#xb0;" horiz-adv-x="588" d="M14 1144q0 105 73.5 178.5t179 73.5t179 -73.5t73.5 -178.5q0 -68 -33.5 -126t-92 -91.5t-126.5 -33.5q-105 0 -179 73.5t-74 177.5zM90 1144q0 -71 52.5 -123t124.5 -52q70 0 122.5 52t52.5 123q0 72 -52.5 124.5t-122.5 52.5q-72 0 -124.5 -52.5t-52.5 -124.5z" />
<glyph unicode="&#xb1;" horiz-adv-x="1030" d="M74 2v107h803v-107h-803zM74 614v106h349v410h107v-410h347v-106h-347v-409h-107v409h-349z" />
<glyph unicode="&#xb2;" horiz-adv-x="588" d="M-52 479q13 18 104 111t190.5 199.5t134.5 158.5q52 77 52 164q0 86 -46.5 139t-131.5 53q-124 0 -235 -130q0 30 20.5 65t55 66t86 51.5t107.5 20.5q45 0 85 -15t68 -40t48.5 -56t30 -64t9.5 -64q0 -60 -28.5 -119t-72.5 -106l-335 -357h379q18 0 30 6.5t17 13.5 t11 18.5t9 16.5l12 -132h-600z" />
<glyph unicode="&#xb3;" horiz-adv-x="517" d="M-48 574q10 -4 34.5 -16t33.5 -16t27.5 -10.5t35 -8.5t38.5 -2q111 0 179 62.5t68 159.5q0 36 -14 67t-45.5 61t-91.5 51.5t-144 31.5q13 6 41.5 18.5t44.5 20t37.5 18t36 20t24.5 19.5q54 47 54 120q0 34 -17 63.5t-41.5 47.5t-50 28t-45.5 10q-43 0 -76.5 -14 t-68.5 -45q9 35 64.5 76t122.5 41q78 0 139.5 -56.5t61.5 -130.5q0 -123 -178 -196q53 -5 95.5 -23.5t69 -44t44.5 -57.5t25.5 -61.5t7.5 -56.5q0 -39 -11 -78t-35 -76t-58.5 -65t-86 -45.5t-112.5 -17.5q-37 0 -68 7.5t-49.5 15.5t-39 25.5t-28 26.5t-24.5 30z" />
<glyph unicode="&#xb4;" horiz-adv-x="812" d="M247 1002q-4 4 35 51t79 92l41 45q42 57 80 57q25 0 41.5 -17t16.5 -42q0 -36 -61 -68l-145 -82q-81 -43 -87 -36z" />
<glyph unicode="&#xb5;" horiz-adv-x="539" d="M-30 598q45 -35 84.5 -53.5t87.5 -18.5q74 0 131 31.5t87.5 83t30.5 114.5q0 91 -64.5 153.5t-155.5 62.5q-37 0 -59.5 -2t-42 -8.5t-43.5 -18.5l76 423h293q37 0 54 5.5t33 20.5l-15 -106h-329l-48 -259q15 7 31.5 11.5t29.5 6.5t24.5 3t17.5 1h6q47 0 97 -18t94 -50.5 t72 -84.5t28 -114t-21 -115.5t-54 -88t-74 -59.5t-79 -36t-71 -11q-52 0 -94 13.5t-67 35.5t-39 40.5t-21 37.5z" />
<glyph unicode="&#xb6;" horiz-adv-x="1245" d="M0 992q0 34 6.5 68t22.5 71.5t41 70.5t64.5 63.5t89.5 52t120.5 34.5t153.5 13h314q-53 -29 -53 -91v-1651q0 -64 53 -90h-234q54 26 54 90v1009q-54 -25 -116.5 -33.5t-116.5 -2.5t-95 16.5t-69 23.5q-23 11 -48.5 27t-60.5 48t-61.5 69.5t-45.5 93.5t-19 118zM142 988 q0 -54 11.5 -100t32 -78t46 -58t57 -42t61 -27t62 -16.5t56.5 -7.5t47 -2q73 0 117 17v621q-38 5 -159 5q-159 0 -245 -79t-86 -233zM885 -467q52 25 52 90v1651q0 63 -52 91h233q-53 -29 -53 -91v-1651q0 -65 53 -90h-233z" />
<glyph unicode="&#xb7;" horiz-adv-x="314" d="M71 680q0 38 25 63t63 25q23 0 43 -11.5t31.5 -31.5t11.5 -45q0 -36 -25 -61t-61 -25q-38 0 -63 25t-25 61z" />
<glyph unicode="&#xb8;" horiz-adv-x="814" d="M261 -283q75 -62 116 -62q30 0 53.5 14t36 36.5t12.5 49.5q0 41 -25.5 67.5t-62.5 26.5q-25 0 -44.5 -10t-45.5 -32l113 243h23l-54 -144q18 0 36.5 -2.5t45 -11.5t46.5 -24t34.5 -44t14.5 -67q0 -66 -46.5 -106t-120.5 -40q-35 0 -61.5 11.5t-40.5 30.5t-20.5 34 t-9.5 30z" />
<glyph unicode="&#xb9;" horiz-adv-x="293" d="M-2 1283l174 94v-839q0 -41 45 -59h-177q44 18 44 59v672q0 85 -86 73z" />
<glyph unicode="&#xba;" horiz-adv-x="599" d="M12 1088q1 50 20 100t52.5 91t85 66.5t111.5 25.5q56 -1 102 -18.5t76.5 -46t51 -66.5t29 -77.5t8.5 -80.5q-1 -50 -20.5 -100t-53.5 -91.5t-85.5 -67.5t-111.5 -26q-54 0 -99 17.5t-75 46.5t-51 67t-30.5 78.5t-9.5 81.5zM92 1076q2 -62 24 -117t68 -92t107 -34 q47 2 83 26t56 61.5t29 81.5t7 90q-4 47 -17 90.5t-36.5 80t-61.5 57.5t-84 19q-61 -2 -103 -43.5t-58.5 -98.5t-13.5 -121z" />
<glyph unicode="&#xbb;" horiz-adv-x="1003" d="M62 128q5 22 19.5 55.5t38 80.5t58.5 94.5t75.5 91.5t94.5 77.5t112 46.5q-58 10 -112 41.5t-95 75.5t-75 92t-58 96.5t-38 82.5t-20 55q54 -83 118 -150t118.5 -105.5t106.5 -64.5t85.5 -35t53.5 -9v-159q-19 0 -52.5 -10t-85.5 -36.5t-106.5 -65.5t-119 -105.5 t-118.5 -148.5zM375 128q5 18 15.5 45t30 66t43.5 78.5t57.5 81.5t70 76t84 61t96.5 38q-57 10 -111 41.5t-95 75.5t-75 92t-58 96.5t-38 82.5t-20 55q55 -83 119 -150t118 -105.5t106 -64.5t85 -35t54 -9v-159q-19 0 -52.5 -10t-85.5 -36.5t-106.5 -65.5t-118.5 -105.5 t-119 -148.5z" />
<glyph unicode="&#xbc;" horiz-adv-x="1227" d="M-2 1283l174 94v-839q0 -41 45 -59h-177q44 18 44 59v672q0 85 -86 73zM24 0q44 77 233 387.5t359 597t211 380.5h98q-46 -83 -234.5 -392.5t-357 -595t-209.5 -377.5h-100zM519 325l542 590v-520h159v-70h-159v-267q0 -40 42 -58h-172q44 18 44 58v267h-456zM651 395 h324v358z" />
<glyph unicode="&#xbd;" horiz-adv-x="1231" d="M-2 1283l174 94v-839q0 -41 45 -59h-177q44 18 44 59v672q0 85 -86 73zM24 0q44 77 233 387.5t359 597t211 380.5h98q-46 -83 -234.5 -392.5t-357 -595t-209.5 -377.5h-100zM590 0q13 18 104.5 111t191.5 199t135 157q53 79 53 165q0 56 -20 99t-61 68.5t-98 25.5 q-62 0 -119 -30.5t-115 -99.5q0 30 20 64.5t54.5 65.5t86 51.5t107.5 20.5t103.5 -23t76.5 -58.5t45 -76.5t16 -80q0 -61 -28.5 -120t-71.5 -106l-335 -357h379q14 1 24.5 4.5t16.5 10t10 12.5t8 14.5t7 12.5l13 -130h-603z" />
<glyph unicode="&#xbe;" horiz-adv-x="1432" d="M-48 574q10 -4 34.5 -16t33.5 -16t27.5 -10.5t35 -8.5t38.5 -2q111 0 179 62.5t68 159.5q0 36 -14 67t-45.5 61t-91.5 51.5t-144 31.5q13 6 41.5 18.5t44.5 20t37.5 18t36 20t24.5 19.5q54 47 54 120q0 34 -17 63.5t-41.5 47.5t-50 28t-45.5 10q-43 0 -76.5 -14 t-68.5 -45q9 35 64.5 76t122.5 41q78 0 139.5 -56.5t61.5 -130.5q0 -123 -178 -196q53 -5 95.5 -23.5t69 -44t44.5 -57.5t25.5 -61.5t7.5 -56.5q0 -39 -11 -78t-35 -76t-58.5 -65t-86 -45.5t-112.5 -17.5q-37 0 -68 7.5t-49.5 15.5t-39 25.5t-28 26.5t-24.5 30zM228 0 q33 59 122 205.5t190 312.5t203.5 336t182.5 310.5t106 200.5h98q-46 -83 -234.5 -392.5t-357 -595t-209.5 -377.5h-101zM724 325l542 590v-520h159v-70h-159v-267q0 -21 11.5 -35.5t30.5 -22.5h-172q44 18 44 58v267h-456zM855 395h325v358z" />
<glyph unicode="&#xbf;" horiz-adv-x="701" d="M32 -184q0 33 13.5 76.5t29.5 80.5t50 95t54.5 90.5t64 99.5t59.5 91q45 73 67.5 137t52.5 219l12 -268q-1 -20 0.5 -32t-1.5 -27t-3 -22t-4.5 -18.5t-6.5 -16.5t-8 -15.5t-9.5 -15.5t-12 -17t-13.5 -20q-19 -29 -47.5 -75t-71.5 -121t-72 -145.5t-29 -110.5 q0 -83 51.5 -136.5t118.5 -53.5q21 0 39 2t41 9t43 19t41.5 33.5t39 50.5t34 72t27.5 96l6 -238q-56 -59 -120 -86t-151 -27q-41 0 -78.5 6.5t-78.5 25t-70 48t-48.5 79.5t-19.5 115zM345 867q0 30 21 51t51 21q32 0 53.5 -21t21.5 -51q0 -31 -21.5 -52.5t-53.5 -21.5 q-19 0 -36 9.5t-26.5 27t-9.5 37.5z" />
<glyph unicode="&#xc0;" d="M-90 0q41 29 57.5 47.5t28.5 48.5l536 1289q491 -1213 523 -1289q14 -35 33.5 -55.5t67.5 -40.5h-293q75 28 46 96q-118 286 -139 337h-553q-118 -279 -139 -337q-14 -34 -4.5 -58t47.5 -38h-211zM243 502h502q-33 80 -71 174.5t-68.5 172t-56.5 144t-41 103.5l-14 38 q-135 -348 -251 -632zM257 1626q0 24 16.5 41t42.5 17q38 0 79 -56l108 -125q51 -61 47 -66q-4 -4 -29 7.5t-59 29.5t-67 37t-56 33l-23 13q-24 11 -41.5 29t-17.5 40z" />
<glyph unicode="&#xc1;" d="M-98 0q41 29 58 47.5t28 48.5l536 1289q491 -1213 524 -1289q14 -36 32.5 -56.5t67.5 -39.5h-293q75 29 47 96q-119 288 -140 337h-553q-118 -278 -138 -337q-15 -34 -5.5 -58t47.5 -38h-211zM235 502h502q-33 80 -70.5 174.5t-68.5 172t-57 144t-40 103.5l-15 38 q-134 -348 -251 -632zM500 1437q-5 4 34 52t80 93l41 46q44 56 80 56q12 0 22.5 -4.5t18.5 -12.5t12.5 -18.5t4.5 -22.5q0 -38 -60 -69l-146 -83q-81 -43 -87 -37z" />
<glyph unicode="&#xc2;" d="M-88 0q41 29 57.5 47.5t28.5 48.5l536 1289q491 -1213 523 -1289q14 -35 33.5 -55.5t67.5 -40.5h-293q75 28 46 96q-118 286 -139 337h-553q-118 -279 -139 -337q-14 -34 -4.5 -58t46.5 -38h-210zM245 502h502q-24 58 -50.5 124.5t-50.5 126t-47 117.5t-41.5 105 t-32.5 83t-21 56l-8 20q-135 -348 -251 -632zM267 1417q-6 7 126.5 127t142.5 120q12 0 144 -120t127 -127q-6 -5 -73.5 27t-132.5 67l-65 34l-172 -89q-91 -45 -97 -39z" />
<glyph unicode="&#xc3;" d="M-96 0q41 29 58 47.5t28 48.5l536 1289q491 -1213 524 -1289q13 -35 32.5 -55.5t68.5 -40.5h-294q75 29 47 96q-120 288 -140 337h-553q-118 -278 -138 -337q-15 -34 -5.5 -58t47.5 -38h-211zM237 502h502q-33 80 -70.5 174.5t-68.5 172t-57 144t-40 103.5l-15 38 q-134 -348 -251 -632zM259 1457q2 12 21 33t47.5 43.5t67.5 39.5t74 17q28 0 106 -31t107 -31q31 0 56.5 11t35.5 22l11 11l38 -17q-4 -4 -11 -12t-28.5 -27.5t-44 -35t-53.5 -27.5t-60 -12q-40 0 -85.5 18.5t-80.5 37t-50 18.5q-27 0 -54.5 -16.5t-42.5 -32.5l-14 -17z" />
<glyph unicode="&#xc4;" d="M-88 0q41 29 57.5 47.5t28.5 48.5l536 1289q491 -1213 523 -1289q14 -35 33.5 -55.5t67.5 -40.5h-293q75 28 46 96q-118 286 -139 337h-553q-118 -279 -139 -337q-14 -34 -4.5 -58t46.5 -38h-210zM245 502h502q-24 58 -50.5 124.5t-50.5 126t-47 117.5t-41.5 105 t-32.5 83t-21 56l-8 20q-135 -348 -251 -632zM329 1528q0 30 21.5 50.5t51.5 20.5q31 0 52 -20.5t21 -50.5q0 -32 -21.5 -53.5t-53.5 -21.5q-20 0 -36 10t-25.5 27t-9.5 38zM588 1528q0 30 21 50.5t52 20.5t52.5 -20.5t21.5 -50.5q0 -32 -21.5 -53.5t-52.5 -21.5t-52 21.5 t-21 53.5z" />
<glyph unicode="&#xc5;" d="M-88 0q41 29 57.5 47.5t28.5 48.5l536 1289q491 -1213 523 -1289q14 -35 33.5 -55.5t67.5 -40.5h-293q75 28 46 96q-118 286 -139 337h-553q-118 -279 -139 -337q-14 -34 -4.5 -58t46.5 -38h-210zM245 502h502q-24 58 -50.5 124.5t-50.5 126t-47 117.5t-41.5 105 t-32.5 83t-21 56l-8 20q-135 -348 -251 -632zM414 1528q0 48 35.5 83.5t84.5 35.5q33 0 61 -16t45 -43.5t17 -59.5q0 -50 -36.5 -86.5t-86.5 -36.5q-32 0 -59.5 16.5t-44 45t-16.5 61.5zM454 1528q0 -36 22.5 -59t57.5 -23q36 0 59 23t23 59t-23 58.5t-59 22.5 q-35 0 -57.5 -22.5t-22.5 -58.5z" />
<glyph unicode="&#xc6;" horiz-adv-x="1502" d="M-205 0q19 14 33 26.5t19.5 20t17 24t18.5 25.5q405 564 902 1269h598v-139q-13 24 -52.5 45.5t-80.5 23.5q-113 2 -209.5 2t-136.5 -1l-41 -1v-502h347q22 0 43.5 18t27.5 38v-179q-3 10 -10 20t-16.5 18t-21.5 13t-23 5h-347v-642q113 -15 205 -15h12h97t75 2.5t64 7.5 t47 13.5t42.5 22.5t30.5 33t31 47l-34 -195h-751q53 26 53 90v381h-480l-269 -385q-23 -29 -19.5 -50.5t39.5 -35.5h-211zM299 540h436v636z" />
<glyph unicode="&#xc7;" horiz-adv-x="1375" d="M16 676q0 85 21.5 169t63.5 163t108 146.5t149 118t193 79.5t234 29q78 0 162.5 -18t153.5 -43.5t159 -65.5q2 -18 4 -48t6 -93t6 -104t1 -38q-29 65 -66.5 118.5t-75 89t-81 62.5t-80.5 42t-75.5 24t-65 11.5t-50.5 2.5q-124 0 -227 -33t-175 -90t-121.5 -135 t-73 -167.5t-23.5 -186.5q0 -59 8 -117.5t25 -116t44 -111t62 -101t82.5 -86.5t103 -67.5t125.5 -44t147 -15.5h14q32 0 52.5 0.5t63.5 6.5t76 18t80 37t85 60.5t80.5 91.5t77.5 127q1 3 -4.5 -63t-10.5 -133l-6 -67q-111 -72 -242 -106t-247 -36l-28 -80q17 0 36 -2.5 t45.5 -11.5t46 -24t34 -44t14.5 -67q0 -66 -46.5 -106t-120.5 -40q-35 0 -61.5 11.5t-40 30.5t-20.5 34t-10 30q76 -62 117 -62q22 0 41.5 8t32.5 21.5t20.5 32t7.5 38.5q0 41 -26 67.5t-62 26.5q-25 0 -45 -10t-46 -32l83 179q-117 2 -226.5 34.5t-201.5 94t-161 144 t-107.5 190.5t-38.5 227z" />
<glyph unicode="&#xc8;" horiz-adv-x="881" d="M65 0q54 26 54 90v1184q0 62 -54 91h701v-139q-31 35 -70 52t-106 17h-345v-502h349q20 0 41 18t29 38v-179q-7 21 -28.5 38.5t-41.5 17.5h-349v-642q118 -15 205 -15h11h98t75 2.5t64.5 7.5t47 13.5t42 22.5t30.5 33t31 47l-35 -195h-749zM259 1605q0 24 17 41.5 t42 17.5q34 0 80 -57l104 -119q54 -65 50 -71q-5 -5 -63.5 25t-113.5 63l-56 33q-60 31 -60 67z" />
<glyph unicode="&#xc9;" horiz-adv-x="881" d="M65 0q54 26 54 90v1184q0 62 -54 91h701v-139q-31 35 -70 52t-106 17h-345v-502h349q20 0 41 18t29 38v-179q-7 21 -28.5 38.5t-41.5 17.5h-349v-642q118 -15 205 -15h11h98t75 2.5t64.5 7.5t47 13.5t42 22.5t30.5 33t31 47l-35 -195h-749zM337 1417q-3 4 36 51.5 t80 93.5l41 45q10 13 16.5 20t17.5 17t22.5 15t23.5 5q24 0 40 -17t16 -42q0 -40 -58 -67l-147 -84q-82 -43 -88 -37z" />
<glyph unicode="&#xca;" horiz-adv-x="881" d="M65 0q54 26 54 90v1184q0 62 -54 91h701v-139q-31 35 -70 52t-106 17h-345v-502h349q20 0 41 18t29 38v-179q-7 21 -28.5 38.5t-41.5 17.5h-349v-642q118 -15 205 -15h11h98t75 2.5t64.5 7.5t47 13.5t42 22.5t30.5 33t31 47l-35 -195h-749zM151 1417q-6 7 126.5 127 t141.5 120q8 0 77 -59.5t133 -121t59 -66.5t-72.5 27t-131.5 67l-65 34l-170 -89q-91 -44 -98 -39z" />
<glyph unicode="&#xcb;" horiz-adv-x="881" d="M65 0q54 26 54 90v1184q0 62 -54 91h701v-139q-31 35 -70 52t-106 17h-345v-502h349q20 0 41 18t29 38v-179q-7 21 -28.5 38.5t-41.5 17.5h-349v-642q118 -15 205 -15h11h98t75 2.5t64.5 7.5t47 13.5t42 22.5t30.5 33t31 47l-35 -195h-749zM237 1528q0 30 21 50.5 t53 20.5q30 0 51 -20.5t21 -50.5q0 -21 -10 -38t-27 -27t-37 -10q-32 0 -52 21.5t-20 53.5zM496 1528q0 30 21.5 50.5t52.5 20.5q30 0 51 -20.5t21 -50.5q0 -32 -20.5 -53.5t-51.5 -21.5t-52.5 21.5t-21.5 53.5z" />
<glyph unicode="&#xcc;" horiz-adv-x="427" d="M34 1605q0 25 17 42t41 17q35 0 80 -57l105 -119q54 -65 50 -71q-5 -5 -63.5 25t-113.5 63l-56 33q-60 31 -60 67zM65 0q52 25 52 90v1184q0 63 -52 91h232q-52 -28 -52 -91v-1184q0 -65 52 -90h-232z" />
<glyph unicode="&#xcd;" horiz-adv-x="427" d="M50 1417q-4 4 35 51.5t79 93.5l41 45q45 57 80 57q16 0 29.5 -8t21 -21.5t7.5 -29.5q0 -36 -60 -67l-146 -84q-81 -43 -87 -37zM65 0q52 25 52 90v1184q0 63 -52 91h232q-52 -28 -52 -91v-1184q0 -65 52 -90h-232z" />
<glyph unicode="&#xce;" horiz-adv-x="427" d="M-80 1417q-7 7 124.5 127t141.5 120q12 0 143.5 -120t126.5 -127q-6 -5 -73 27t-132 67l-65 34l-170 -89q-90 -45 -96 -39zM67 0q52 25 52 90v1184q0 63 -52 91h232q-52 -28 -52 -91v-1184q0 -65 52 -90h-232z" />
<glyph unicode="&#xcf;" horiz-adv-x="427" d="M-18 1528q0 30 20 50.5t50 20.5q31 0 52.5 -20.5t21.5 -50.5q0 -21 -10 -38t-27 -27t-37 -10q-31 0 -50.5 21.5t-19.5 53.5zM65 0q52 25 52 90v1184q0 63 -52 91h232q-52 -28 -52 -91v-1184q0 -65 52 -90h-232zM239 1528q0 30 21 50.5t53 20.5q30 0 51 -20.5t21 -50.5 q0 -32 -21 -53.5t-51 -21.5q-32 0 -53 21.5t-21 53.5z" />
<glyph unicode="&#xd0;" horiz-adv-x="1362" d="M0 686v65h121v523q0 63 -52 91h461q138 0 253 -29t191 -74.5t135 -108t91 -123t52.5 -126.5t26.5 -112t6 -85q0 -65 -13 -131.5t-43 -136.5t-74 -133t-110 -119.5t-147 -97.5t-189.5 -65t-233.5 -24h-406q52 25 52 90v596h-121zM249 76q65 -3 291 -3q97 0 179 19 t142.5 52.5t108.5 81.5t79.5 102.5t52 119t29.5 128.5t9 133q0 56 -9.5 112.5t-30 114.5t-51.5 110t-77 98t-102.5 79t-132.5 52.5t-163 19.5q-279 0 -325 -6v-538h124v-65h-124v-610z" />
<glyph unicode="&#xd1;" horiz-adv-x="1304" d="M12 1365h203l846 -1070v979q0 63 -54 91h183q-54 -29 -54 -91v-1290q-950 1182 -950 1202v-1096q0 -65 55 -90h-181q55 27 55 90v1142q0 32 -2 39.5t-11 23.5q-36 52 -90 70zM364 1457q2 12 21.5 33.5t48 43.5t67 39t73.5 17q29 0 106.5 -31t106.5 -31q30 0 55.5 11 t36.5 22l10 11l40 -17q-4 -4 -11 -12t-29.5 -27.5t-44.5 -35t-53.5 -27.5t-60.5 -12q-41 0 -86 18.5t-79.5 37t-50.5 18.5q-27 0 -54.5 -16.5t-41.5 -32.5l-14 -17z" />
<glyph unicode="&#xd2;" horiz-adv-x="1542" d="M16 705q2 77 26.5 158t68.5 157.5t110 143.5t146.5 117t185 77t217.5 23q82 -3 165.5 -25.5t162.5 -63.5t147 -103t118 -138.5t77 -175.5t23 -209q-3 -108 -38 -206t-91.5 -171.5t-130 -133t-155 -97t-165 -56t-161.5 -16.5q-80 3 -158 22.5t-148.5 54.5t-133 82 t-112.5 108.5t-85.5 131t-53.5 151.5t-15 169zM165 709q0 -131 35 -241t92.5 -185t133 -127.5t155.5 -77t160 -24.5q165 0 294 77.5t200 215.5t71 314q0 115 -26.5 217t-76.5 181t-118.5 136.5t-156 88t-185.5 30.5q-123 0 -229 -42t-183.5 -119t-121.5 -191.5t-44 -252.5z M554 1605q0 25 16 42t41 17q12 0 23.5 -5t22.5 -15t17.5 -17t16.5 -20l109 -124q51 -61 47 -66q-6 -5 -64.5 25t-114.5 63l-56 33q-58 28 -58 67z" />
<glyph unicode="&#xd3;" horiz-adv-x="1542" d="M16 705q2 77 26.5 158t68.5 157.5t110 143.5t146.5 117t185 77t217.5 23q82 -3 165.5 -25.5t162.5 -63.5t147 -103t118 -138.5t77 -175.5t23 -209q-3 -108 -38 -206t-91.5 -171.5t-130 -133t-155 -97t-165 -56t-161.5 -16.5q-80 3 -158 22.5t-148.5 54.5t-133 82 t-112.5 108.5t-85.5 131t-53.5 151.5t-15 169zM165 709q0 -131 35 -241t92.5 -185t133 -127.5t155.5 -77t160 -24.5q165 0 294 77.5t200 215.5t71 314q0 115 -26.5 217t-76.5 181t-118.5 136.5t-156 88t-185.5 30.5q-123 0 -229 -42t-183.5 -119t-121.5 -191.5t-44 -252.5z M632 1417q-3 4 36 51.5t80 93.5l41 45q45 57 80 57q12 0 23 -4.5t18.5 -12.5t12 -19t4.5 -23q0 -36 -60 -67l-147 -84q-82 -43 -88 -37z" />
<glyph unicode="&#xd4;" horiz-adv-x="1542" d="M16 705q2 77 26.5 158t68.5 157.5t110 143.5t146.5 117t185 77t217.5 23q82 -3 165.5 -25.5t162.5 -63.5t147 -103t118 -138.5t77 -175.5t23 -209q-3 -108 -38 -206t-91.5 -171.5t-130 -133t-155 -97t-165 -56t-161.5 -16.5q-80 3 -158 22.5t-148.5 54.5t-133 82 t-112.5 108.5t-85.5 131t-53.5 151.5t-15 169zM165 709q0 -131 35 -241t92.5 -185t133 -127.5t155.5 -77t160 -24.5q165 0 294 77.5t200 215.5t71 314q0 115 -26.5 217t-76.5 181t-118.5 136.5t-156 88t-185.5 30.5q-123 0 -229 -42t-183.5 -119t-121.5 -191.5t-44 -252.5z M473 1417q-6 7 127 127t143 120q12 0 143 -120t125 -127q-5 -5 -72 27t-132 67l-64 34l-172 -89q-91 -44 -98 -39z" />
<glyph unicode="&#xd5;" horiz-adv-x="1542" d="M16 705q2 77 26.5 158t68.5 157.5t110 143.5t146.5 117t185 77t217.5 23q82 -3 165.5 -25.5t162.5 -63.5t147 -103t118 -138.5t77 -175.5t23 -209q-3 -108 -38 -206t-91.5 -171.5t-130 -133t-155 -97t-165 -56t-161.5 -16.5q-80 3 -158 22.5t-148.5 54.5t-133 82 t-112.5 108.5t-85.5 131t-53.5 151.5t-15 169zM165 709q0 -131 35 -241t92.5 -185t133 -127.5t155.5 -77t160 -24.5q165 0 294 77.5t200 215.5t71 314q0 115 -26.5 217t-76.5 181t-118.5 136.5t-156 88t-185.5 30.5q-123 0 -229 -42t-183.5 -119t-121.5 -191.5t-44 -252.5z M466 1457q2 12 21.5 33.5t48 43.5t67 39t73.5 17q29 0 106.5 -31t106.5 -31q30 0 56 11t36 22l11 11l40 -17q-4 -4 -11 -12t-29.5 -27.5t-44.5 -35t-53.5 -27.5t-60.5 -12q-41 0 -86 18.5t-80 37t-51 18.5t-33.5 -6.5t-31 -16.5t-24 -19.5t-16.5 -16.5l-5 -7z" />
<glyph unicode="&#xd6;" horiz-adv-x="1542" d="M16 705q2 77 26.5 158t68.5 157.5t110 143.5t146.5 117t185 77t217.5 23q82 -3 165.5 -25.5t162.5 -63.5t147 -103t118 -138.5t77 -175.5t23 -209q-3 -108 -38 -206t-91.5 -171.5t-130 -133t-155 -97t-165 -56t-161.5 -16.5q-80 3 -158 22.5t-148.5 54.5t-133 82 t-112.5 108.5t-85.5 131t-53.5 151.5t-15 169zM165 709q0 -131 35 -241t92.5 -185t133 -127.5t155.5 -77t160 -24.5q165 0 294 77.5t200 215.5t71 314q0 115 -26.5 217t-76.5 181t-118.5 136.5t-156 88t-185.5 30.5q-123 0 -229 -42t-183.5 -119t-121.5 -191.5t-44 -252.5z M538 1528q0 30 21 50.5t52 20.5t52 -20.5t21 -50.5q0 -32 -21.5 -53.5t-51.5 -21.5q-32 0 -52.5 21.5t-20.5 53.5zM797 1528q0 30 21.5 50.5t52.5 20.5q30 0 51.5 -20.5t21.5 -50.5q0 -21 -10 -38t-26.5 -27t-36.5 -10q-31 0 -52.5 21.5t-21.5 53.5z" />
<glyph unicode="&#xd7;" horiz-adv-x="1030" d="M71 435l331 333l-331 332l78 80l333 -333l328 333l83 -80l-331 -332l331 -333l-83 -77l-328 330l-333 -330z" />
<glyph unicode="&#xd8;" horiz-adv-x="1542" d="M18 705q2 77 26.5 157.5t68.5 157t110 143.5t146.5 116.5t184.5 77t218 24.5q97 -3 196 -34t184 -87l87 105h113q-13 -13 -134 -153q120 -95 186.5 -233.5t60.5 -312.5q-3 -108 -38 -205.5t-91.5 -171.5t-130 -133.5t-155 -96.5t-165 -56t-161.5 -17q-235 6 -421 142 q-15 -18 -33.5 -39.5t-29.5 -34.5t-21.5 -25.5t-15 -19.5t-4.5 -9h-119q20 20 157 182q-108 100 -166.5 234t-52.5 289zM167 709q0 -269 142 -444q293 340 785 923q-145 126 -349 126q-123 0 -229 -42t-183.5 -119t-121.5 -191.5t-44 -252.5zM366 203q81 -72 180.5 -110.5 t196.5 -38.5q165 0 294 77.5t200 215.5t71 314q0 143 -40.5 263t-115.5 208q-232 -272 -440 -517.5t-346 -411.5z" />
<glyph unicode="&#xd9;" horiz-adv-x="1183" d="M46 1365h257q-64 -35 -64 -91v-857q0 -32 3.5 -62.5t13 -67.5t25.5 -69t43 -63t63 -52.5t88 -35t115 -13.5q87 0 153.5 20.5t108 53.5t67.5 80t36 95t10 103l-4 868q0 63 -52 91h185q-52 -28 -52 -91l-10 -864q-1 -66 -14.5 -122t-36.5 -99t-56 -77t-71.5 -57.5t-84 -39 t-93 -22.5t-98.5 -7q-65 0 -128 13.5t-125.5 46t-109 80.5t-75.5 123.5t-29 167.5v857q0 56 -65 91zM395 1605q0 24 17 41.5t42 17.5q35 0 80 -57l108 -124q50 -61 46 -66q-5 -5 -63 25t-114 63l-55 33q-61 31 -61 67z" />
<glyph unicode="&#xda;" horiz-adv-x="1183" d="M46 1365h257q-64 -35 -64 -91v-857q0 -32 3.5 -62.5t13 -67.5t25.5 -69t43 -63t63 -52.5t88 -35t115 -13.5q87 0 153.5 20.5t108 53.5t67.5 80t36 95t10 103l-4 868q0 63 -52 91h185q-52 -28 -52 -91l-10 -864q-1 -66 -14.5 -122t-36.5 -99t-56 -77t-71.5 -57.5t-84 -39 t-93 -22.5t-98.5 -7q-65 0 -128 13.5t-125.5 46t-109 80.5t-75.5 123.5t-29 167.5v857q0 56 -65 91zM477 1417q-3 4 35.5 51.5t79.5 93.5l40 45q46 57 80 57q12 0 23 -4.5t18.5 -12.5t12 -19t4.5 -23q0 -36 -60 -67l-146 -84q-81 -43 -87 -37z" />
<glyph unicode="&#xdb;" horiz-adv-x="1183" d="M46 1365h257q-64 -35 -64 -91v-857q0 -32 3.5 -62.5t13 -67.5t25.5 -69t43 -63t63 -52.5t88 -35t115 -13.5q87 0 153.5 20.5t108 53.5t67.5 80t36 95t10 103l-4 868q0 63 -52 91h185q-52 -28 -52 -91l-10 -864q-1 -66 -14.5 -122t-36.5 -99t-56 -77t-71.5 -57.5t-84 -39 t-93 -22.5t-98.5 -7q-65 0 -128 13.5t-125.5 46t-109 80.5t-75.5 123.5t-29 167.5v857q0 56 -65 91zM325 1417q-5 7 127 127t142 120q12 0 144.5 -120t126.5 -127q-5 -5 -73 27t-133 67l-65 34l-171 -89q-91 -44 -98 -39z" />
<glyph unicode="&#xdc;" horiz-adv-x="1183" d="M46 1365h257q-64 -35 -64 -91v-857q0 -32 3.5 -62.5t13 -67.5t25.5 -69t43 -63t63 -52.5t88 -35t115 -13.5q87 0 153.5 20.5t108 53.5t67.5 80t36 95t10 103l-4 868q0 63 -52 91h185q-52 -28 -52 -91l-10 -864q-1 -66 -14.5 -122t-36.5 -99t-56 -77t-71.5 -57.5t-84 -39 t-93 -22.5t-98.5 -7q-65 0 -128 13.5t-125.5 46t-109 80.5t-75.5 123.5t-29 167.5v857q0 56 -65 91zM393 1528q0 30 21.5 50.5t52.5 20.5t52 -20.5t21 -50.5q0 -31 -22 -53t-52 -22q-32 0 -52.5 21.5t-20.5 53.5zM653 1528q0 30 21 50.5t52 20.5q30 0 51.5 -20.5t21.5 -50.5 q0 -21 -10 -38t-26.5 -27t-36.5 -10q-31 0 -52 21.5t-21 53.5z" />
<glyph unicode="&#xdd;" horiz-adv-x="888" d="M-142 1365h322q-1 0 -4 -2q-19 -7 -27.5 -11t-19.5 -14t-11.5 -21.5t5 -30.5t21.5 -45l304 -502l276 529q13 24 16.5 39.5t-3.5 26t-17 17t-32 14.5h225q-30 -15 -48.5 -27.5t-33.5 -29t-28 -40.5l-324 -609v-569q0 -56 71 -90h-280q73 35 73 90v563l-369 615 q-21 34 -45.5 54t-70.5 43zM385 1437q-4 4 34.5 52t79.5 93l41 46q45 56 80 56q25 0 41.5 -17t16.5 -41q0 -38 -60 -69l-146 -83q-81 -43 -87 -37z" />
<glyph unicode="&#xde;" horiz-adv-x="912" d="M65 0q54 26 54 90v1184q0 63 -52 91h232q-52 -28 -52 -91v-222h132q65 0 122.5 -8t102 -22t82.5 -34t65.5 -42.5t49.5 -49.5t36 -54t23 -56t13 -55.5t4 -52.5q0 -62 -19 -118t-45.5 -93.5t-61.5 -69t-60.5 -47.5t-48.5 -27q-28 -13 -69 -23t-95 -16.5t-116.5 2.5 t-116.5 33v-229q0 -64 54 -90h-234zM245 362q47 -19 117 -19q27 0 55 2.5t66 11t71.5 22.5t67.5 39.5t58 59t39.5 84.5t15.5 112q0 155 -86 234.5t-245 79.5q-54 0 -93.5 -2t-52.5 -3l-13 -2v-619z" />
<glyph unicode="&#xdf;" horiz-adv-x="992" d="M46 0q28 14 40 28.5t12 45.5v931q0 52 9.5 101t35 100t65 89t105.5 62t151 24q138 0 227.5 -84t89.5 -213q0 -71 -31.5 -136t-89.5 -113.5t-134 -74.5q56 -4 111 -23t105 -52t88.5 -77.5t61.5 -104.5t23 -128q0 -58 -16.5 -113.5t-57.5 -109t-101.5 -92t-155.5 -59.5 t-213 -15q-86 0 -110 6v58q35 -5 76.5 -5t93.5 6.5t100.5 20t95.5 40t82 63t56.5 92.5t21.5 124q0 52 -11.5 96t-32.5 76t-50 58t-63.5 42t-73.5 28t-80 16t-83 6.5t-82 -1.5v67q173 9 263 90.5t90 208.5q0 96 -67.5 169.5t-161.5 73.5q-53 0 -94 -21.5t-65.5 -54t-40 -75 t-21 -80.5t-5.5 -75v-1015h-163z" />
<glyph unicode="&#xe0;" horiz-adv-x="812" d="M4 224q0 146 132 226q35 21 102.5 44t127.5 39t116 39.5t76 47.5v81q0 25 -5.5 49t-19.5 48t-34.5 42t-53.5 29.5t-74 11.5q-37 0 -69 -7.5t-56 -19.5t-45.5 -33t-37 -42.5t-31 -53t-26 -59.5t-24.5 -68l-6 231q5 3 13 10q32 25 51 38t53.5 30t77 24.5t97.5 7.5 q38 0 75 -5.5t78.5 -22t72 -42t50.5 -71t20 -103.5v-563v-8q0 -20 1 -29.5t6.5 -22t18 -19t34.5 -9.5l-102 -60q-26 19 -38 32.5t-19 43.5t-7 82q-147 -156 -323 -156q-51 0 -92 17.5t-66.5 44t-42.5 60t-23.5 62.5t-6.5 54zM119 253q0 -86 43 -132.5t123 -46.5 q153 0 273 127v339q-16 -8 -34 -16t-32.5 -14t-38 -13.5t-39 -12.5t-47 -14.5t-49.5 -15.5q-45 -14 -78.5 -30.5t-62.5 -40t-43.5 -56.5t-14.5 -74zM169 1188q0 17 7 30.5t20 21t30 7.5q15 0 31 -10t25 -19.5t25 -27.5l107 -123q52 -61 48 -65q-6 -6 -64.5 24t-114.5 62 l-57 32q-57 28 -57 68z" />
<glyph unicode="&#xe1;" horiz-adv-x="812" d="M4 224q0 146 132 226q35 21 102.5 44t127.5 39t116 39.5t76 47.5v81q0 25 -5.5 49t-19.5 48t-34.5 42t-53.5 29.5t-74 11.5q-37 0 -69 -7.5t-56 -19.5t-45.5 -33t-37 -42.5t-31 -53t-26 -59.5t-24.5 -68l-6 231q5 3 13 10q32 25 51 38t53.5 30t77 24.5t97.5 7.5 q38 0 75 -5.5t78.5 -22t72 -42t50.5 -71t20 -103.5v-563v-8q0 -20 1 -29.5t6.5 -22t18 -19t34.5 -9.5l-102 -60q-26 19 -38 32.5t-19 43.5t-7 82q-147 -156 -323 -156q-51 0 -92 17.5t-66.5 44t-42.5 60t-23.5 62.5t-6.5 54zM119 253q0 -86 43 -132.5t123 -46.5 q153 0 273 127v339q-16 -8 -34 -16t-32.5 -14t-38 -13.5t-39 -12.5t-47 -14.5t-49.5 -15.5q-45 -14 -78.5 -30.5t-62.5 -40t-43.5 -56.5t-14.5 -74zM247 1002q-4 4 35 51t79 92l41 45q42 57 80 57q25 0 41.5 -17t16.5 -42q0 -36 -61 -68l-145 -82q-81 -43 -87 -36z" />
<glyph unicode="&#xe2;" horiz-adv-x="812" d="M4 224q0 146 132 226q35 21 102.5 44t127.5 39t116 39.5t76 47.5v81q0 25 -5.5 49t-19.5 48t-34.5 42t-53.5 29.5t-74 11.5q-37 0 -69 -7.5t-56 -19.5t-45.5 -33t-37 -42.5t-31 -53t-26 -59.5t-24.5 -68l-6 231q5 3 13 10q32 25 51 38t53.5 30t77 24.5t97.5 7.5 q38 0 75 -5.5t78.5 -22t72 -42t50.5 -71t20 -103.5v-563v-8q0 -20 1 -29.5t6.5 -22t18 -19t34.5 -9.5l-102 -60q-26 19 -38 32.5t-19 43.5t-7 82q-147 -156 -323 -156q-51 0 -92 17.5t-66.5 44t-42.5 60t-23.5 62.5t-6.5 54zM90 1002q-7 6 126.5 125.5t143.5 119.5 q7 0 75.5 -59.5t132.5 -120.5t60 -65q-5 -6 -72 26.5t-132 66.5l-64 35l-172 -90q-92 -44 -98 -38zM119 253q0 -86 43 -132.5t123 -46.5q153 0 273 127v339q-16 -8 -34 -16t-32.5 -14t-38 -13.5t-39 -12.5t-47 -14.5t-49.5 -15.5q-45 -14 -78.5 -30.5t-62.5 -40t-43.5 -56.5 t-14.5 -74z" />
<glyph unicode="&#xe3;" horiz-adv-x="812" d="M4 224q0 146 132 226q35 21 102.5 44t127.5 39t116 39.5t76 47.5v81q0 25 -5.5 49t-19.5 48t-34.5 42t-53.5 29.5t-74 11.5q-37 0 -69 -7.5t-56 -19.5t-45.5 -33t-37 -42.5t-31 -53t-26 -59.5t-24.5 -68l-6 231q5 3 13 10q32 25 51 38t53.5 30t77 24.5t97.5 7.5 q38 0 75 -5.5t78.5 -22t72 -42t50.5 -71t20 -103.5v-563v-8q0 -20 1 -29.5t6.5 -22t18 -19t34.5 -9.5l-102 -60q-26 19 -38 32.5t-19 43.5t-7 82q-147 -156 -323 -156q-51 0 -92 17.5t-66.5 44t-42.5 60t-23.5 62.5t-6.5 54zM96 1054q2 7 10.5 19t22.5 26t33.5 28.5t40.5 26 t45.5 19t46.5 7.5q28 0 102.5 -30t102.5 -30q29 0 53 10.5t33 21.5l10 10l38 -14q-2 -3 -5.5 -6.5t-14.5 -15t-23 -21.5t-30 -22.5t-35 -21.5t-38.5 -15t-41.5 -6q-31 0 -65 10.5t-57.5 23t-47.5 23t-37 10.5q-25 0 -51 -14.5t-40 -29.5l-14 -15zM119 253q0 -86 43 -132.5 t123 -46.5q153 0 273 127v339q-16 -8 -34 -16t-32.5 -14t-38 -13.5t-39 -12.5t-47 -14.5t-49.5 -15.5q-45 -14 -78.5 -30.5t-62.5 -40t-43.5 -56.5t-14.5 -74z" />
<glyph unicode="&#xe4;" horiz-adv-x="812" d="M4 224q0 146 132 226q35 21 102.5 44t127.5 39t116 39.5t76 47.5v81q0 25 -5.5 49t-19.5 48t-34.5 42t-53.5 29.5t-74 11.5q-37 0 -69 -7.5t-56 -19.5t-45.5 -33t-37 -42.5t-31 -53t-26 -59.5t-24.5 -68l-6 231q5 3 13 10q32 25 51 38t53.5 30t77 24.5t97.5 7.5 q38 0 75 -5.5t78.5 -22t72 -42t50.5 -71t20 -103.5v-563v-8q0 -20 1 -29.5t6.5 -22t18 -19t34.5 -9.5l-102 -60q-26 19 -38 32.5t-19 43.5t-7 82q-147 -156 -323 -156q-51 0 -92 17.5t-66.5 44t-42.5 60t-23.5 62.5t-6.5 54zM119 253q0 -86 43 -132.5t123 -46.5 q153 0 273 127v339q-16 -8 -34 -16t-32.5 -14t-38 -13.5t-39 -12.5t-47 -14.5t-49.5 -15.5q-45 -14 -78.5 -30.5t-62.5 -40t-43.5 -56.5t-14.5 -74zM161 1120q0 30 21.5 51.5t52.5 21.5q20 0 36.5 -10t26 -26.5t9.5 -36.5q0 -31 -21.5 -52.5t-52 -21.5t-51.5 21.5t-21 52.5z M421 1120q0 30 21.5 51.5t51.5 21.5q20 0 37 -10t27 -26.5t10 -36.5q0 -31 -22 -52.5t-52 -21.5q-20 0 -36.5 9.5t-26.5 26.5t-10 38z" />
<glyph unicode="&#xe5;" horiz-adv-x="812" d="M4 224q0 146 132 226q35 21 102.5 44t127.5 39t116 39.5t76 47.5v81q0 25 -5.5 49t-19.5 48t-34.5 42t-53.5 29.5t-74 11.5q-37 0 -69 -7.5t-56 -19.5t-45.5 -33t-37 -42.5t-31 -53t-26 -59.5t-24.5 -68l-6 231q5 3 13 10q32 25 51 38t53.5 30t77 24.5t97.5 7.5 q38 0 75 -5.5t78.5 -22t72 -42t50.5 -71t20 -103.5v-563v-8q0 -20 1 -29.5t6.5 -22t18 -19t34.5 -9.5l-102 -60q-26 19 -38 32.5t-19 43.5t-7 82q-147 -156 -323 -156q-51 0 -92 17.5t-66.5 44t-42.5 60t-23.5 62.5t-6.5 54zM119 253q0 -86 43 -132.5t123 -46.5 q153 0 273 127v339q-16 -8 -34 -16t-32.5 -14t-38 -13.5t-39 -12.5t-47 -14.5t-49.5 -15.5q-45 -14 -78.5 -30.5t-62.5 -40t-43.5 -56.5t-14.5 -74zM247 1122q0 50 36 86.5t84.5 36.5t85.5 -36.5t37 -86.5q0 -48 -37 -84t-85.5 -36t-84.5 36t-36 84zM285 1122q0 -18 6 -33 t17 -26t26.5 -17t33.5 -6q36 0 59 23t23 59t-23 59t-59 23q-24 0 -43 -10.5t-29.5 -29t-10.5 -42.5z" />
<glyph unicode="&#xe6;" horiz-adv-x="1398" d="M4 224q0 146 132 226q35 21 102.5 44t127.5 39t116 39.5t76 47.5v71q0 31 -9.5 60.5t-30 57t-58.5 44t-89 16.5q-52 0 -93 -14t-69 -36.5t-52.5 -61.5t-39.5 -75.5t-35 -93.5l-6 231l22.5 18t23.5 18.5t22.5 16t26 16t27.5 13t33.5 12t36.5 8.5t45 6.5t51 1.5 q51 0 98 -15.5t75.5 -34.5t59 -34.5t52.5 -15.5q21 0 42.5 10.5t45.5 25t54.5 29t81 25t113.5 10.5q36 0 74 -9.5t76.5 -29t72.5 -52t60.5 -74.5t42 -101t15.5 -127h-661q0 -10 -1 -31.5t-1 -31.5q0 -181 87 -290.5t247 -109.5q67 0 139 35t122 85.5t70 99.5 q-5 -61 -35 -118t-76.5 -101t-112 -70.5t-136.5 -26.5q-72 0 -130 18.5t-92 44t-60 51.5t-47.5 44t-39.5 18t-41 -17t-51.5 -41.5t-64 -49t-90 -42t-118.5 -17.5q-51 0 -92 17.5t-66.5 44t-42.5 60t-23.5 62.5t-6.5 54zM119 253q0 -86 43 -132.5t123 -46.5q85 0 148.5 37.5 t102.5 103.5q14 23 19.5 104t3.5 151l-1 70q-16 -8 -34 -16t-32.5 -14t-38 -13.5t-39 -12.5t-47 -14.5t-49.5 -15.5q-45 -14 -78.5 -30.5t-62.5 -40t-43.5 -56.5t-14.5 -74zM672 588l527 2q0 64 -15 114t-39 80.5t-58 50t-68.5 27t-74.5 7.5q-62 0 -111.5 -23t-80.5 -64 t-50.5 -89t-29.5 -105z" />
<glyph unicode="&#xe7;" horiz-adv-x="814" d="M20 458q0 60 16 124.5t52 128.5t86.5 114.5t127 82t165.5 31.5q54 0 117 -20t100 -40l36 -20v-237q-23 77 -65 136t-99 93t-119 34q-45 0 -84.5 -13.5t-69.5 -37t-54.5 -55.5t-41 -68t-28 -75.5t-16.5 -77.5t-5 -74q0 -78 21.5 -149.5t61 -129t103.5 -91.5t143 -34 q44 0 85 9.5t68 21.5t56 32t42 31.5t33 30.5l6 6q-2 -19 -14 -45t-38 -58t-61 -59t-89 -45t-115 -18h-26l-31 -80q18 0 36.5 -2.5t45 -11.5t46.5 -24t34.5 -44t14.5 -67q0 -66 -46.5 -106t-120.5 -40q-35 0 -61.5 11.5t-40.5 30.5t-20.5 34t-9.5 30q75 -62 116 -62 q30 0 53.5 14t36 36.5t12.5 49.5q0 41 -25.5 67.5t-62.5 26.5q-25 0 -44.5 -10t-45.5 -32l84 183q-73 8 -134.5 41t-103.5 80.5t-71.5 106.5t-42.5 119.5t-13 120.5z" />
<glyph unicode="&#xe8;" horiz-adv-x="884" d="M18 454q0 60 16 125t52 129.5t86.5 115.5t127 83t166.5 32q43 0 88.5 -13.5t91.5 -44t81.5 -74.5t58 -112t22.5 -149h-657q0 -10 -1 -32t-1 -32q0 -183 86 -293.5t244 -110.5q69 0 141 35.5t122 86.5t68 101q-4 -61 -33 -118t-75.5 -100.5t-111.5 -70t-136 -26.5 q-85 0 -158 29t-123 76.5t-86 109t-52.5 126t-16.5 127.5zM157 598h525q0 80 -20.5 138t-56.5 89.5t-78 45.5t-92 14q-62 0 -112 -24t-83 -66t-53 -91t-30 -106zM289 1188q0 17 7.5 30.5t21 21t29.5 7.5q38 0 80 -57l105 -118q55 -65 50 -70.5t-63.5 24.5t-113.5 62l-56 32 q-60 31 -60 68z" />
<glyph unicode="&#xe9;" horiz-adv-x="886" d="M18 454q0 60 16 125t52 129.5t86.5 115.5t127 83t166.5 32q43 0 88.5 -13.5t91.5 -44t81.5 -74.5t58 -112t22.5 -149h-657q0 -10 -1 -32t-1 -32q0 -183 86 -293.5t244 -110.5q69 0 141 35.5t122 86.5t68 101q-4 -61 -33 -118t-75.5 -100.5t-111.5 -70t-136 -26.5 q-85 0 -158 29t-123 76.5t-86 109t-52.5 126t-16.5 127.5zM157 598h525q0 80 -20.5 138t-56.5 89.5t-78 45.5t-92 14q-62 0 -112 -24t-83 -66t-53 -91t-30 -106zM318 1002q-4 4 34.5 51t78.5 92l40 45q42 57 81 57q24 0 41.5 -17t17.5 -42q0 -36 -61 -68l-146 -82 q-79 -42 -86 -36z" />
<glyph unicode="&#xea;" horiz-adv-x="884" d="M18 454q0 60 16 125t52 129.5t86.5 115.5t127 83t166.5 32q43 0 88.5 -13.5t91.5 -44t81.5 -74.5t58 -112t22.5 -149h-657q0 -10 -1 -32t-1 -32q0 -183 86 -293.5t244 -110.5q69 0 141 35.5t122 86.5t68 101q-4 -61 -33 -118t-75.5 -100.5t-111.5 -70t-136 -26.5 q-85 0 -158 29t-123 76.5t-86 109t-52.5 126t-16.5 127.5zM157 598h525q0 80 -20.5 138t-56.5 89.5t-78 45.5t-92 14q-62 0 -112 -24t-83 -66t-53 -91t-30 -106zM174 1002q-5 6 128.5 125.5t143.5 119.5q7 0 75 -59.5t132.5 -120.5t60.5 -65q-5 -6 -72 26.5t-132 66.5 l-64 35l-173 -89q-93 -45 -99 -39z" />
<glyph unicode="&#xeb;" horiz-adv-x="884" d="M18 454q0 60 16 125t52 129.5t86.5 115.5t127 83t166.5 32q43 0 88.5 -13.5t91.5 -44t81.5 -74.5t58 -112t22.5 -149h-657q0 -10 -1 -32t-1 -32q0 -183 86 -293.5t244 -110.5q69 0 141 35.5t122 86.5t68 101q-4 -61 -33 -118t-75.5 -100.5t-111.5 -70t-136 -26.5 q-85 0 -158 29t-123 76.5t-86 109t-52.5 126t-16.5 127.5zM157 598h525q0 80 -20.5 138t-56.5 89.5t-78 45.5t-92 14q-62 0 -112 -24t-83 -66t-53 -91t-30 -106zM233 1120q0 31 21 52t53 21q30 0 51 -21.5t21 -51.5q0 -20 -10 -37.5t-27 -27t-37 -9.5q-21 0 -37.5 9.5 t-25.5 26.5t-9 38zM492 1120q0 30 22 51.5t52 21.5t51 -21.5t21 -51.5q0 -21 -9.5 -38t-26 -26.5t-36 -9.5t-37 9.5t-27.5 27t-10 37.5z" />
<glyph unicode="&#xec;" horiz-adv-x="370" d="M-24 1188q0 25 16 42t40 17q12 0 23 -4.5t22 -15t17.5 -17t18.5 -20.5l107 -123q50 -61 47 -65q-6 -6 -64.5 24t-114.5 62l-56 32q-56 27 -56 68zM32 891l183 48v-865q0 -31 12.5 -45.5t41.5 -28.5h-217q28 14 40 28.5t12 45.5v738q0 21 -5 35.5t-16.5 22.5t-20 11.5 t-24.5 7.5q-4 1 -6 2z" />
<glyph unicode="&#xed;" horiz-adv-x="370" d="M4 1002q-3 4 36 51t79 92l40 45q12 14 18 20.5t17.5 17t22.5 15t22 4.5q25 0 41.5 -17t16.5 -42q0 -37 -60 -68l-146 -82q-81 -43 -87 -36zM32 891l183 48v-865q0 -31 12.5 -45.5t41.5 -28.5h-217q28 14 40 28.5t12 45.5v738q0 21 -5 35.5t-16.5 22.5t-20 11.5t-24.5 7.5 q-4 1 -6 2z" />
<glyph unicode="&#xee;" horiz-adv-x="370" d="M-104 1002q-5 6 126 125.5t141 119.5q7 0 76 -59.5t133 -120.5t59 -65q-5 -6 -72 26.5t-132 66.5l-64 35l-170 -89q-91 -45 -97 -39zM32 891l183 48v-865q0 -31 12.5 -45.5t41.5 -28.5h-217q28 14 40 28.5t12 45.5v738q0 21 -5 35.5t-16.5 22.5t-20 11.5t-24.5 7.5 q-4 1 -6 2z" />
<glyph unicode="&#xef;" horiz-adv-x="370" d="M-52 1120q0 30 21 51.5t51 21.5t51 -21.5t21 -51.5q0 -31 -22 -52.5t-52 -21.5t-50 21t-20 53zM30 891l183 48v-865q0 -31 12.5 -45.5t41.5 -28.5h-217q28 14 40 28.5t12 45.5v738q0 21 -5 35.5t-16.5 22.5t-20 11.5t-24.5 7.5q-4 1 -6 2zM205 1120q0 30 21.5 51.5 t52.5 21.5q30 0 51 -21.5t21 -51.5q0 -31 -21 -52.5t-51 -21.5q-31 0 -52.5 21.5t-21.5 52.5z" />
<glyph unicode="&#xf0;" horiz-adv-x="923" d="M18 467q0 67 18.5 134t54.5 127.5t84.5 107.5t115.5 75t142 28q61 0 110.5 -13t77 -31t46.5 -36.5t25 -31.5l7 -13q-8 87 -41 174t-86 158l-267 -72v64l221 61q-110 113 -256 113q-82 0 -120 -10.5t-90 -43.5q16 45 88.5 84t167.5 39q181 0 320 -155l189 53v-65l-147 -40 q84 -113 129.5 -264t45.5 -301q0 -294 -117 -458.5t-311 -164.5q-82 1 -151.5 30t-116 77t-79 110.5t-47 129.5t-13.5 134zM142 450q3 -61 16 -119.5t38 -112t60 -93.5t84.5 -62.5t107.5 -20.5q58 3 105.5 30t78.5 69.5t51.5 98t28 115t4.5 120.5q-3 62 -16 121t-38 112.5 t-59.5 93.5t-84 62.5t-106.5 20.5q-72 -4 -127 -43.5t-86 -103t-45.5 -137t-11.5 -151.5z" />
<glyph unicode="&#xf1;" horiz-adv-x="932" d="M30 891l183 48v-150q14 18 40.5 41t64 48.5t86 43t94.5 17.5q52 0 102.5 -18t92.5 -50t68 -83.5t26 -113.5v-600q0 -31 12 -45.5t40 -28.5h-213q28 14 40 28.5t12 45.5v528q0 247 -238 247q-65 0 -124.5 -34.5t-102.5 -81.5v-659q0 -31 12.5 -45.5t41.5 -28.5h-217 q28 14 40 28.5t12 45.5v738q0 21 -5 35.5t-16.5 22.5t-20 11.5t-24.5 7.5q-4 1 -6 2zM191 1054q2 11 20 31.5t44.5 42t63 37t70.5 15.5q27 0 101.5 -30t101.5 -30q29 0 53.5 10.5t35.5 21.5l10 10l35 -14q-3 -5 -10 -12t-27.5 -26t-41.5 -33t-50.5 -25.5t-56.5 -11.5 q-39 0 -82.5 17t-76.5 33.5t-48 16.5q-25 0 -52 -14.5t-41 -29.5l-14 -15z" />
<glyph unicode="&#xf2;" horiz-adv-x="925" d="M20 467q0 67 18.5 134t54.5 128t84.5 108t115.5 74.5t142 27.5q85 -1 155.5 -30t117 -76t78.5 -110t45.5 -129t13.5 -134q-1 -66 -20 -133.5t-55.5 -128t-86 -108t-116 -76t-140.5 -28.5q-82 1 -151.5 30t-116 77t-79 110.5t-47 129.5t-13.5 134zM144 450 q2 -61 15.5 -119.5t38.5 -112t60 -93.5t84.5 -62.5t107.5 -20.5q58 3 105.5 30t78.5 69.5t51.5 98t28 115t4.5 120.5q-3 62 -16 121t-38 112.5t-59.5 93.5t-84 62.5t-106.5 20.5q-72 -4 -127 -43.5t-86 -103t-45.5 -137t-11.5 -151.5zM255 1188q0 17 7.5 30.5t21 21 t29.5 7.5q38 0 80 -57l105 -118q55 -65 50 -70.5t-63.5 24.5t-113.5 62l-55 32q-61 32 -61 68z" />
<glyph unicode="&#xf3;" horiz-adv-x="923" d="M18 467q0 67 18.5 134t54.5 128t84.5 108t115.5 74.5t142 27.5q86 -1 156 -30t116.5 -76t78.5 -110t45.5 -129t13.5 -134q-1 -66 -20 -133.5t-55.5 -128t-86 -108t-116 -76t-140.5 -28.5q-82 1 -151.5 30t-116 77t-79 110.5t-47 129.5t-13.5 134zM142 450 q3 -61 16 -119.5t38 -112t60 -93.5t84.5 -62.5t107.5 -20.5q58 3 105.5 30t78.5 69.5t51.5 98t28 115t4.5 120.5q-3 62 -16 121t-38 112.5t-59.5 93.5t-84 62.5t-106.5 20.5q-72 -4 -127 -43.5t-86 -103t-45.5 -137t-11.5 -151.5zM297 1002q-4 4 35.5 51t80.5 92l41 45 q42 57 80 57q25 0 41.5 -17t16.5 -42q0 -37 -60 -68l-147 -82q-81 -42 -88 -36z" />
<glyph unicode="&#xf4;" horiz-adv-x="925" d="M20 467q0 67 18.5 134t54.5 128t84.5 108t115.5 74.5t142 27.5q85 -1 155.5 -30t117 -76t78.5 -110t45.5 -129t13.5 -134q-1 -66 -20 -133.5t-55.5 -128t-86 -108t-116 -76t-140.5 -28.5q-82 1 -151.5 30t-116 77t-79 110.5t-47 129.5t-13.5 134zM144 450 q2 -61 15.5 -119.5t38.5 -112t60 -93.5t84.5 -62.5t107.5 -20.5q58 3 105.5 30t78.5 69.5t51.5 98t28 115t4.5 120.5q-3 62 -16 121t-38 112.5t-59.5 93.5t-84 62.5t-106.5 20.5q-72 -4 -127 -43.5t-86 -103t-45.5 -137t-11.5 -151.5zM161 1002q-7 6 125.5 125.5 t142.5 119.5q12 0 143.5 -119t126.5 -126q-4 -4 -32.5 8t-67.5 31.5t-78 39.5t-65 35l-27 14l-171 -89q-91 -45 -97 -39z" />
<glyph unicode="&#xf5;" horiz-adv-x="925" d="M20 467q0 67 18.5 134t54.5 128t84.5 108t115.5 74.5t142 27.5q85 -1 155.5 -30t117 -76t78.5 -110t45.5 -129t13.5 -134q-1 -66 -20 -133.5t-55.5 -128t-86 -108t-116 -76t-140.5 -28.5q-82 1 -151.5 30t-116 77t-79 110.5t-47 129.5t-13.5 134zM144 450 q2 -61 15.5 -119.5t38.5 -112t60 -93.5t84.5 -62.5t107.5 -20.5q58 3 105.5 30t78.5 69.5t51.5 98t28 115t4.5 120.5q-3 62 -16 121t-38 112.5t-59.5 93.5t-84 62.5t-106.5 20.5q-72 -4 -127 -43.5t-86 -103t-45.5 -137t-11.5 -151.5zM167 1054q1 7 10 19t23 26t33 28.5 t40 26t45.5 19t47.5 7.5q27 0 101.5 -30t102.5 -30q29 0 53 10.5t34 21.5l9 10l39 -14q-2 -2 -4 -4.5t-9 -9.5l-14.5 -14.5t-19.5 -17t-23.5 -18t-26.5 -17t-29.5 -14.5t-31 -9.5t-32.5 -3.5q-30 0 -64 10.5t-58 23t-47.5 23t-36.5 10.5q-25 0 -51 -14.5t-40 -29.5l-13 -15z " />
<glyph unicode="&#xf6;" horiz-adv-x="925" d="M20 467q0 67 18.5 134t54.5 128t84.5 108t115.5 74.5t142 27.5q85 -1 155.5 -30t117 -76t78.5 -110t45.5 -129t13.5 -134q-1 -66 -20 -133.5t-55.5 -128t-86 -108t-116 -76t-140.5 -28.5q-82 1 -151.5 30t-116 77t-79 110.5t-47 129.5t-13.5 134zM144 450 q2 -61 15.5 -119.5t38.5 -112t60 -93.5t84.5 -62.5t107.5 -20.5q58 3 105.5 30t78.5 69.5t51.5 98t28 115t4.5 120.5q-3 62 -16 121t-38 112.5t-59.5 93.5t-84 62.5t-106.5 20.5q-72 -4 -127 -43.5t-86 -103t-45.5 -137t-11.5 -151.5zM226 1120q0 30 21.5 51.5t51.5 21.5 q31 0 52.5 -21.5t21.5 -51.5q0 -31 -22 -52.5t-54 -21.5q-20 0 -36 9.5t-25.5 26.5t-9.5 38zM486 1120q0 31 21 52t53 21q30 0 51 -21.5t21 -51.5q0 -31 -21 -52.5t-51 -21.5q-21 0 -38 9.5t-26.5 26.5t-9.5 38z" />
<glyph unicode="&#xf7;" horiz-adv-x="858" d="M67 636v88h668v-88h-668zM323 451.5q0 30.5 21 52.5t51 22q21 0 38 -10t26.5 -27t9.5 -37q0 -31 -21.5 -53t-52.5 -22q-30 0 -51 22t-21 52.5zM323 909q0 11 2.5 20.5t7.5 18t11.5 15t14 11.5t17 7.5t19.5 2.5q32 0 53 -21.5t21 -53.5q0 -30 -21.5 -51t-52.5 -21 q-30 0 -51 21t-21 51z" />
<glyph unicode="&#xf8;" horiz-adv-x="925" d="M20 467q0 67 18 134t54 127.5t85 107.5t116 75t142 28q142 0 237 -74q15 19 28 37.5t18 27.5l6 9h79q-66 -88 -85 -114q64 -70 95.5 -167.5t31.5 -197.5q0 -66 -19 -133.5t-56 -128t-86.5 -108t-116 -76t-140.5 -28.5q-147 0 -255 90q-13 -18 -25.5 -37.5t-18.5 -28.5 l-6 -10h-80q37 49 88 122q-55 71 -82.5 161.5t-27.5 183.5zM144 450q3 -127 55 -233q74 100 228.5 312.5t188.5 259.5q-84 101 -202 96q-58 -2 -105 -28.5t-78 -69.5t-51.5 -99t-29 -116t-6.5 -122zM233 155q90 -118 217 -113q58 2 105 28.5t78 69t51 99t28 116t6 120.5 q-3 141 -67 258q-9 -13 -418 -578z" />
<glyph unicode="&#xf9;" horiz-adv-x="936" d="M18 891l183 48v-581q0 -128 60.5 -205t159.5 -77q40 0 72 7.5t62 24.5t48.5 30.5t51.5 41.5q9 7 13 11v621q0 21 -5 35t-16 22t-19 11.5t-24 8.5q-4 1 -6 2l181 48v-807q0 -39 18 -68.5t62 -35.5l-124 -42q-23 16 -31 23t-19 23t-14 37.5t-3 56.5q-121 -140 -293 -140 q-34 0 -69.5 9.5t-75.5 35.5t-70.5 65.5t-51 106.5t-20.5 152v457q0 21 -5 35t-16 22t-19 11.5t-24 8.5q-4 1 -6 2zM245 1188q0 17 7 30.5t20.5 21t30.5 7.5q11 0 22 -4.5t22.5 -15t17.5 -17t18 -20.5l108 -123q51 -61 47 -65q-5 -6 -64 24t-115 62l-56 32q-58 28 -58 68z " />
<glyph unicode="&#xfa;" horiz-adv-x="936" d="M18 891l183 48v-581q0 -128 60.5 -205t159.5 -77q40 0 72 7.5t62 24.5t48.5 30.5t51.5 41.5q9 7 13 11v621q0 21 -5 35t-16 22t-19 11.5t-24 8.5q-4 1 -6 2l181 48v-807q0 -39 18 -68.5t62 -35.5l-124 -42q-23 16 -31 23t-19 23t-14 37.5t-3 56.5q-121 -140 -293 -140 q-34 0 -69.5 9.5t-75.5 35.5t-70.5 65.5t-51 106.5t-20.5 152v457q0 21 -5 35t-16 22t-19 11.5t-24 8.5q-4 1 -6 2zM325 1002q-4 4 34.5 51t79.5 92l40 45q42 57 81 57q24 0 41 -17t17 -42q0 -36 -60 -68l-146 -82q-81 -43 -87 -36z" />
<glyph unicode="&#xfb;" horiz-adv-x="936" d="M18 891l183 48v-581q0 -128 60.5 -205t159.5 -77q40 0 72 7.5t62 24.5t48.5 30.5t51.5 41.5q9 7 13 11v621q0 21 -5 35t-16 22t-19 11.5t-24 8.5q-4 1 -6 2l181 48v-807q0 -39 18 -68.5t62 -35.5l-124 -42q-23 16 -31 23t-19 23t-14 37.5t-3 56.5q-121 -140 -293 -140 q-34 0 -69.5 9.5t-75.5 35.5t-70.5 65.5t-51 106.5t-20.5 152v457q0 21 -5 35t-16 22t-19 11.5t-24 8.5q-4 1 -6 2zM167 1002q-7 6 125.5 125.5t142.5 119.5q12 0 143.5 -119t126.5 -126q-4 -4 -33 8t-68 31.5t-77.5 39.5t-64.5 35l-27 14l-171 -89q-91 -45 -97 -39z" />
<glyph unicode="&#xfc;" horiz-adv-x="936" d="M18 891l183 48v-581q0 -128 60.5 -205t159.5 -77q40 0 72 7.5t62 24.5t48.5 30.5t51.5 41.5q9 7 13 11v621q0 21 -5 35t-16 22t-19 11.5t-24 8.5q-4 1 -6 2l181 48v-807q0 -39 18 -68.5t62 -35.5l-124 -42q-23 16 -31 23t-19 23t-14 37.5t-3 56.5q-121 -140 -293 -140 q-34 0 -69.5 9.5t-75.5 35.5t-70.5 65.5t-51 106.5t-20.5 152v457q0 21 -5 35t-16 22t-19 11.5t-24 8.5q-4 1 -6 2zM231 1120q0 30 21 51.5t51 21.5q31 0 52.5 -21.5t21.5 -51.5q0 -31 -22 -52.5t-52 -21.5q-21 0 -37.5 9.5t-25.5 26.5t-9 38zM490 1120q0 31 21 52t53 21 q30 0 51 -21.5t21 -51.5q0 -31 -21 -52.5t-51 -21.5q-21 0 -38 9.5t-26.5 26.5t-9.5 38z" />
<glyph unicode="&#xfd;" horiz-adv-x="724" d="M-78 915h283l-9 -3q-17 -6 -25.5 -10t-20 -12.5t-15 -18.5t-2.5 -27t9 -39l222 -619q165 371 258 619q34 90 -64 110h243q-26 -13 -42 -23t-31.5 -26.5t-22.5 -36.5q-42 -105 -245.5 -569t-315.5 -735h-154q20 10 35 19.5t26.5 20.5t19 18t15.5 20.5t11.5 19.5t12.5 23.5 t12 24.5q25 47 52 102.5t71 149.5t60 127l-289 779q-8 21 -13.5 33.5t-16 21t-15 11.5t-23 10t-26.5 10zM333 1002q-3 4 36 51t80 92l41 45q42 57 80 57q16 0 29.5 -7.5t21 -21t7.5 -30.5q0 -37 -60 -68l-147 -82q-82 -43 -88 -36z" />
<glyph unicode="&#xfe;" horiz-adv-x="944" d="M32 1333l175 48v-578q33 46 113.5 91t167.5 45q48 0 97.5 -15.5t101 -52t91 -89.5t64.5 -136.5t25 -183.5q0 -61 -16.5 -125t-52.5 -127t-87 -112.5t-125.5 -80.5t-162.5 -31q-124 0 -214 46v-411q0 -31 12 -45t42 -28h-217q19 9 28.5 16.5t16.5 21.5t7 35v1633 q0 54 -40 70q-6 3 -26 9zM209 155q87 -117 210 -117q144 0 233 111t89 313q0 60 -8.5 111.5t-24 89t-35 67.5t-44 50t-48 34.5t-49.5 22t-47.5 11t-42.5 3.5q-67 0 -132.5 -34.5t-100.5 -81.5v-580z" />
<glyph unicode="&#xff;" horiz-adv-x="724" d="M-100 915h282l-9 -3q-17 -6 -25 -10t-19.5 -12.5t-14.5 -18.5t-2.5 -27t9.5 -39l220 -619q166 371 259 619q34 90 -64 110h243q-40 -20 -63 -38.5t-34 -47.5q-42 -105 -245 -569t-315 -735h-154q19 10 34 19.5t27 20.5t19 18t15.5 20.5t12 19.5t12 23.5t12.5 24.5 q35 67 183 379l-287 779q-8 21 -14 33.5t-16.5 21t-15 11.5t-23 10t-27.5 10zM153 1120q0 31 21 52t52 21q20 0 37 -10t26.5 -26.5t9.5 -36.5q0 -31 -22 -52.5t-53 -21.5q-20 0 -36.5 9.5t-25.5 26.5t-9 38zM412 1120q0 30 21.5 51.5t52.5 21.5q30 0 51 -21.5t21 -51.5 q0 -21 -9.5 -38t-26 -26.5t-36.5 -9.5q-21 0 -38 9.5t-26.5 26.5t-9.5 38z" />
<glyph unicode="&#x102;" d="M-90 0q41 29 57.5 47.5t28.5 48.5l536 1289q491 -1213 523 -1289q14 -35 33.5 -55.5t67.5 -40.5h-293q75 28 46 96q-118 286 -139 337h-553q-118 -279 -139 -337q-14 -34 -4.5 -58t47.5 -38h-211zM243 502h502q-33 80 -71 174.5t-68.5 172t-56.5 144t-41 103.5l-14 38 q-135 -348 -251 -632zM291 1732v14h20q0 -3 0.5 -8.5t4.5 -22t11.5 -31.5t24 -33.5t38.5 -31.5t58 -22t80 -9q46 0 83 8.5t59 22.5t38 31t23 34t10.5 31t3.5 23v8h23q1 -11 0.5 -29t-12 -64t-33.5 -81t-72.5 -64t-122.5 -29q-52 0 -93 14.5t-65.5 38.5t-41.5 52.5t-24 57 t-10.5 52t-2.5 38.5z" />
<glyph unicode="&#x103;" horiz-adv-x="816" d="M8 224q0 146 132 226q35 21 102.5 44t127.5 39t116 39.5t76 47.5v81q0 31 -10 61t-30 58t-58 44.5t-89 16.5q-37 0 -69 -7.5t-56 -19.5t-45.5 -33t-37 -42.5t-31 -53t-26 -59.5t-24.5 -68l-6 231q5 3 13 10q32 25 51 38t53.5 30t77 24.5t96.5 7.5q39 0 75.5 -5.5 t78.5 -22t72.5 -42t50.5 -71t20 -103.5v-563v-8q0 -20 1 -29.5t6 -22t18 -19t35 -9.5l-102 -60q-26 19 -38 32.5t-19 43.5t-7 82q-147 -156 -323 -156q-51 0 -92.5 17.5t-66.5 44t-42 60t-23.5 62.5t-6.5 54zM122 253q0 -86 43.5 -132.5t123.5 -46.5q153 0 273 127v339 q-19 -10 -38 -18.5t-45.5 -17.5t-42 -14t-56.5 -18t-59 -18q-45 -14 -78 -30.5t-62 -40t-44 -56.5t-15 -74zM154 1288l1 14h19q0 -3 0.5 -8.5t5 -22t12 -31.5t23.5 -33.5t38 -31.5t58 -22t80 -9q46 0 83 8.5t59 22.5t38.5 31t23 34t10.5 31t4 23v8h23q-1 0 0.5 -8.5 t-1.5 -24.5t-5 -35.5t-10.5 -42t-19 -44.5t-29.5 -42t-42.5 -35.5t-58 -24.5t-75.5 -9q-52 0 -93 14.5t-65.5 38t-41.5 52t-23.5 57t-10 52t-3.5 38.5z" />
<glyph unicode="&#x104;" d="M-90 0q41 29 57.5 47.5t28.5 48.5l536 1289q491 -1213 523 -1289q14 -35 33.5 -55.5t67.5 -40.5h-293q75 28 46 96q-118 286 -139 337h-553q-118 -279 -139 -337q-14 -34 -4.5 -58t47.5 -38h-211zM243 502h502q-33 80 -71 174.5t-68.5 172t-56.5 144t-41 103.5l-14 38 q-135 -348 -251 -632zM858 -207q0 100 67 153.5t185 53.5q-7 -2 -18.5 -5.5t-41 -18.5t-52.5 -35t-41.5 -55.5t-18.5 -78.5q0 -42 28.5 -71t73.5 -29q19 0 32 2t36 12.5t48 31.5q-2 -12 -6 -24.5t-14 -30t-23.5 -31t-37 -23.5t-51.5 -10q-72 0 -119 46t-47 113z" />
<glyph unicode="&#x105;" horiz-adv-x="816" d="M8 224q0 146 132 226q35 21 102.5 44t127.5 39t116 39.5t76 47.5v81q0 31 -10 61t-30 58t-58 44.5t-89 16.5q-37 0 -69 -7.5t-56 -19.5t-45.5 -33t-37 -42.5t-31 -53t-26 -59.5t-24.5 -68l-6 231q5 3 13 10q32 25 51 38t53.5 30t77 24.5t96.5 7.5q39 0 75.5 -5.5 t78.5 -22t72.5 -42t50.5 -71t20 -103.5v-563v-8q0 -20 1 -29.5t6 -22t18 -19t35 -9.5l-102 -60q-26 19 -38 32.5t-19 43.5t-7 82q-147 -156 -323 -156q-51 0 -92.5 17.5t-66.5 44t-42 60t-23.5 62.5t-6.5 54zM122 253q0 -86 43.5 -132.5t123.5 -46.5q153 0 273 127v339 q-19 -10 -38 -18.5t-45.5 -17.5t-42 -14t-56.5 -18t-59 -18q-45 -14 -78 -30.5t-62 -40t-44 -56.5t-15 -74zM279 -207q0 100 67.5 153.5t185.5 53.5q-7 -2 -18.5 -5.5t-41.5 -18.5t-52.5 -35t-41 -55.5t-18.5 -78.5q0 -42 28 -71t74 -29q19 0 32 2t36 12.5t48 31.5 q-2 -12 -6 -24.5t-14 -30t-24 -31t-37 -23.5t-51 -10q-73 0 -120 46t-47 113z" />
<glyph unicode="&#x106;" horiz-adv-x="1375" d="M16 676q0 85 21.5 169t63.5 163t108 146.5t149 118t193 79.5t234 29q78 0 162.5 -18t153.5 -43.5t159 -65.5q2 -18 4 -48t6 -93t6 -104t1 -38q-29 65 -66.5 118.5t-75 89t-81 62.5t-80.5 42t-75.5 24t-65 11.5t-50.5 2.5q-124 0 -227 -33t-175 -90t-121.5 -135 t-73 -167.5t-23.5 -186.5q0 -59 8 -117.5t25 -116t44 -111t62 -101t82.5 -86.5t103 -67.5t125.5 -44t147 -15.5h14q32 0 52.5 0.5t63.5 6.5t76 18t80 37t85 60.5t80.5 91.5t77.5 127q1 3 -4.5 -63t-10.5 -133l-6 -67q-114 -74 -249.5 -108t-254.5 -34q-118 0 -230 32 t-205.5 93t-163.5 144t-109.5 191.5t-39.5 229.5zM634 1435q-4 4 34.5 52t79.5 93l41 46q45 56 80 56q16 0 29.5 -8t21 -21t7.5 -29q0 -38 -60 -69l-146 -83q-81 -43 -87 -37z" />
<glyph unicode="&#x107;" horiz-adv-x="814" d="M20 458q0 60 16 124.5t52 128.5t86.5 114.5t127 82t165.5 31.5q54 0 117 -20t100 -40l36 -20v-237q-23 77 -65 136t-99 93t-119 34q-45 0 -84.5 -13.5t-69.5 -37t-54.5 -55.5t-41 -68t-28 -75.5t-16.5 -77.5t-5 -74q0 -78 21.5 -149.5t61 -129t103.5 -91.5t143 -34 q44 0 85 9.5t68 21.5t56 32t42 31.5t33 30.5l6 6q-2 -19 -14 -45t-38 -58t-61 -59t-89 -45t-115 -18q-84 0 -155 29.5t-119 77.5t-82 110t-49 126.5t-15 128.5zM345 1002q-4 4 35 51t79 92l41 45q42 57 80 57q25 0 41.5 -17t16.5 -42q0 -37 -60 -68l-146 -82 q-81 -43 -87 -36z" />
<glyph unicode="&#x10c;" horiz-adv-x="1375" d="M16 676q0 85 21.5 169t63.5 163t108 146.5t149 118t193 79.5t234 29q78 0 162.5 -18t153.5 -43.5t159 -65.5q2 -18 4 -48t6 -93t6 -104t1 -38q-29 65 -66.5 118.5t-75 89t-81 62.5t-80.5 42t-75.5 24t-65 11.5t-50.5 2.5q-124 0 -227 -33t-175 -90t-121.5 -135 t-73 -167.5t-23.5 -186.5q0 -59 8 -117.5t25 -116t44 -111t62 -101t82.5 -86.5t103 -67.5t125.5 -44t147 -15.5h14q32 0 52.5 0.5t63.5 6.5t76 18t80 37t85 60.5t80.5 91.5t77.5 127q1 3 -4.5 -63t-10.5 -133l-6 -67q-114 -74 -249.5 -108t-254.5 -34q-118 0 -230 32 t-205.5 93t-163.5 144t-109.5 191.5t-39.5 229.5zM482 1690q3 3 32 -9t68 -31.5t77.5 -39.5t64.5 -34l27 -15l171 89q90 45 97 40q5 -5 -59 -66.5t-133 -120.5t-76 -59q-6 0 -74.5 59t-133 120.5t-61.5 66.5z" />
<glyph unicode="&#x10d;" horiz-adv-x="814" d="M20 458q0 60 16 124.5t52 128.5t86.5 114.5t127 82t165.5 31.5q54 0 117 -20t100 -40l36 -20v-237q-23 77 -65 136t-99 93t-119 34q-45 0 -84.5 -13.5t-69.5 -37t-54.5 -55.5t-41 -68t-28 -75.5t-16.5 -77.5t-5 -74q0 -78 21.5 -149.5t61 -129t103.5 -91.5t143 -34 q44 0 85 9.5t68 21.5t56 32t42 31.5t33 30.5l6 6q-2 -19 -14 -45t-38 -58t-61 -59t-89 -45t-115 -18q-84 0 -155 29.5t-119 77.5t-82 110t-49 126.5t-15 128.5zM161 1245q2 2 18 -4t40 -17t52.5 -25t56 -28.5t50.5 -26.5t37 -20l14 -8l172 90q91 44 98 39q4 -5 -60 -66 t-133 -120t-77 -59q-9 0 -141.5 119t-126.5 126z" />
<glyph unicode="&#x10e;" horiz-adv-x="1362" d="M69 0q52 25 52 90v1184q0 63 -52 91h461q138 0 253 -29t191 -74.5t135 -108t91 -123t52.5 -126.5t26.5 -112t6 -85q0 -65 -13 -131.5t-43 -136.5t-74 -133t-110 -119.5t-147 -97.5t-189.5 -65t-233.5 -24h-406zM249 76q65 -3 291 -3q97 0 179 19t142.5 52.5t108.5 81.5 t79.5 102.5t52 119t29.5 128.5t9 133q0 56 -9.5 112.5t-30 114.5t-51.5 110t-77 98t-102.5 79t-132.5 52.5t-163 19.5q-279 0 -325 -6v-1213zM277 1674q6 5 73 -27t131 -67l65 -35l171 90q91 45 97 39q7 -7 -124.5 -127t-143.5 -120q-10 0 -142 120t-127 127z" />
<glyph unicode="&#x10f;" horiz-adv-x="1003" d="M20 490q0 60 17.5 122.5t54.5 122.5t89 106.5t127.5 75.5t162.5 29q118 0 197 -73v387q0 21 -5 35t-16.5 22.5t-20 11.5t-24.5 8q-4 1 -6 2l183 48v-1268q0 -21 5 -35t16.5 -22t19.5 -11.5t24 -8.5q4 -1 7 -2l-173 -48l-6 112q-37 -41 -111.5 -76.5t-146.5 -35.5 q-89 0 -159 31t-113 80.5t-71.5 116.5t-39.5 133t-11 137zM144 484q0 -94 22.5 -169.5t56.5 -120t77.5 -74.5t81.5 -40.5t72 -10.5q59 0 117.5 28.5t96.5 63.5v609q-27 48 -75.5 82.5t-115.5 34.5q-146 0 -239.5 -107.5t-93.5 -295.5zM917 1335q0 25 17 42.5t43 17.5 q18 0 34 -10.5t26.5 -29t10.5 -41.5q0 -81 -36 -149.5t-70 -78.5q-5 -3 -7 2q-3 5 4 8q9 3 22 28.5t24 69.5t11 89q-6 -6 -19 -6q-26 0 -43 16.5t-17 41.5z" />
<glyph unicode="&#x110;" horiz-adv-x="1362" d="M10 657v107h546v-107h-546zM69 0q52 25 52 90v1184q0 63 -52 91h461q138 0 253 -29t191 -74.5t135 -108t91 -123t52.5 -126.5t26.5 -112t6 -85q0 -65 -13 -131.5t-43 -136.5t-74 -133t-110 -119.5t-147 -97.5t-189.5 -65t-233.5 -24h-406zM249 76q65 -3 291 -3 q97 0 179 19t142.5 52.5t108.5 81.5t79.5 102.5t52 119t29.5 128.5t9 133q0 56 -9.5 112.5t-30 114.5t-51.5 110t-77 98t-102.5 79t-132.5 52.5t-163 19.5q-279 0 -325 -6v-1213z" />
<glyph unicode="&#x111;" horiz-adv-x="936" d="M16 490q0 60 17.5 122.5t54.5 122.5t89 106.5t127.5 75.5t162.5 29q118 0 197 -73v387q0 21 -5 35t-16.5 22.5t-20 11.5t-24.5 8q-4 1 -6 2l183 48v-1268q0 -9 1.5 -17t3 -14t5.5 -11.5t6 -9t8 -7.5t8 -5.5t10 -4.5t9.5 -3.5l10.5 -3.5t10 -3l-173 -48l-6 112 q-37 -41 -111.5 -76.5t-146.5 -35.5q-89 0 -159 31t-113 80.5t-71.5 116.5t-39.5 133t-11 137zM140 484q0 -94 23 -169.5t57 -120t77.5 -74.5t81 -40.5t71.5 -10.5q41 0 85.5 16t75 35.5t53.5 40.5v609q-27 48 -75.5 82.5t-115.5 34.5q-146 0 -239.5 -107.5t-93.5 -295.5z M375 1086v80h490v-80h-490z" />
<glyph unicode="&#x118;" horiz-adv-x="881" d="M62 0q55 27 55 90v1184q0 61 -55 91h702v-139q-31 35 -70 52t-106 17h-345v-502h349q20 0 41.5 18t28.5 38v-179q-7 21 -28.5 38.5t-41.5 17.5h-349v-642q118 -15 205 -15h11h98t75 2.5t64.5 7.5t47 13.5t42 22.5t30.5 33t31 47l-35 -195h-750zM508 -195q0 99 67.5 153 t184.5 54q-7 -2 -18.5 -5.5t-41 -18.5t-52.5 -34.5t-41.5 -55.5t-18.5 -78q0 -27 12.5 -50t36.5 -37t54 -14q19 0 32 2t35.5 12.5t48.5 31.5q-3 -12 -7 -24.5t-14 -30t-23.5 -31t-36.5 -23t-52 -9.5q-72 0 -119 45.5t-47 112.5z" />
<glyph unicode="&#x119;" horiz-adv-x="886" d="M20 454q0 60 16 125t52 129.5t86.5 115.5t127 83t165.5 32q44 0 89.5 -13.5t91.5 -44t81.5 -74.5t58 -112t22.5 -149h-657q0 -10 -1 -32t-1 -32q0 -183 86.5 -293.5t244.5 -110.5q69 0 140.5 35.5t121.5 86.5t68 101q-4 -61 -33 -118t-75.5 -100.5t-111.5 -70t-136 -26.5 q-85 0 -158 29t-123 76.5t-86 109t-52.5 126t-16.5 127.5zM159 598h525q0 80 -20.5 138t-57 89.5t-78 45.5t-91.5 14q-62 0 -112 -24t-83 -66t-53.5 -91t-29.5 -106zM368 -191q0 99 67 153t185 54q-7 -2 -18.5 -5.5t-41 -18.5t-52.5 -34.5t-41.5 -55.5t-18.5 -78t28.5 -71.5 t73.5 -29.5q19 0 32 2t36 12.5t48 31.5q-2 -12 -6 -24.5t-14 -30t-23.5 -31t-37 -23t-51.5 -9.5q-73 0 -119.5 45.5t-46.5 112.5z" />
<glyph unicode="&#x11a;" horiz-adv-x="881" d="M62 0q55 27 55 90v1184q0 61 -55 91h702v-139q-31 35 -70 52t-106 17h-345v-502h349q20 0 41.5 18t28.5 38v-179q-7 21 -28.5 38.5t-41.5 17.5h-349v-642q118 -15 205 -15h11h98t75 2.5t64.5 7.5t47 13.5t42 22.5t30.5 33t31 47l-35 -195h-750zM163 1672q5 5 72 -27 t132 -67l64 -34l172 89q91 44 98 39q2 -3 -23 -29.5t-63.5 -62t-78.5 -71t-70 -60t-35 -24.5q-9 0 -141.5 120t-126.5 127z" />
<glyph unicode="&#x11b;" horiz-adv-x="886" d="M20 456q0 50 11.5 103.5t34.5 108.5t60.5 104t85.5 87t114 60.5t141 22.5q44 0 89.5 -13.5t91.5 -44.5t81.5 -75t58 -112t22.5 -149h-657q0 -10 -1 -32t-1 -32q0 -183 86.5 -293.5t244.5 -110.5q69 0 140.5 35.5t121.5 86.5t68 101q-4 -61 -33 -118t-75.5 -100.5 t-111.5 -70t-136 -26.5q-85 0 -158 29t-123 76.5t-86 109t-52.5 126t-16.5 127.5zM159 600h525q0 80 -20.5 138t-57 89.5t-78 45.5t-91.5 14q-62 0 -112 -24t-83 -66t-53.5 -91t-29.5 -106zM182 1245q4 3 33 -9t67.5 -31.5t77.5 -39.5t65 -34l27 -15l171 89q91 46 97 40 q5 -5 -59 -66t-133 -120t-76 -59q-10 0 -142.5 119t-127.5 126z" />
<glyph unicode="&#x131;" horiz-adv-x="370" d="M32 891l183 48v-865q0 -31 12.5 -45.5t41.5 -28.5h-217q28 14 40 28.5t12 45.5v738q0 21 -5 35.5t-16.5 22.5t-20 11.5t-24.5 7.5q-4 1 -6 2z" />
<glyph unicode="&#x139;" horiz-adv-x="882" d="M65 0q54 26 54 90v1184q0 62 -54 91h234q-54 -29 -54 -91v-1190q118 -15 205 -15h11h98t75 2.5t64.5 7.5t47 13.5t42 22.5t30.5 33t31 47l-35 -195h-749zM421 1363q0 17 8 31t22 21.5t31 7.5q28 0 49 -23.5t21 -56.5q0 -81 -36 -150t-70 -79q-5 -3 -7 2t5 8q16 5 36 63 t20 123q-6 -6 -18 -6q-25 0 -43 17.5t-18 41.5z" />
<glyph unicode="&#x13a;" horiz-adv-x="370" d="M30 1333l183 48v-1307q0 -31 12.5 -45.5t41.5 -28.5h-217q28 14 40 28.5t12 45.5v1180q0 21 -5 35.5t-16.5 22.5t-20 11.5t-24.5 7.5q-4 1 -6 2zM335 1331q0 26 17 43t43 17q28 0 49.5 -23.5t21.5 -57.5q0 -81 -36 -149.5t-70 -78.5q-5 -3 -7 2t5 8q15 5 35.5 63 t20.5 124q-7 -7 -19 -7q-26 0 -43 17t-17 42z" />
<glyph unicode="&#x13d;" horiz-adv-x="882" d="M-69 1698q6 6 72.5 -26.5t131.5 -66.5l64 -35l171 89q90 45 97 39q8 -7 -124 -127t-144 -120q-10 0 -141.5 120t-126.5 127zM65 0q54 26 54 90v1184q0 62 -54 91h234q-54 -29 -54 -91v-1190q118 -15 205 -15h11h98t75 2.5t64.5 7.5t47 13.5t42 22.5t30.5 33t31 47 l-35 -195h-749z" />
<glyph unicode="&#x13e;" horiz-adv-x="581" d="M30 1333l183 48v-1307q0 -31 12.5 -45.5t41.5 -28.5h-217q28 14 40 28.5t12 45.5v1180q0 21 -5 35.5t-16.5 22.5t-20 11.5t-24.5 7.5q-4 1 -6 2zM335 1331q0 26 17 43t43 17q28 0 49.5 -23.5t21.5 -57.5q0 -81 -36 -149.5t-70 -78.5q-5 -3 -7 2t5 8q15 5 35.5 63 t20.5 124q-7 -7 -19 -7q-26 0 -43 17t-17 42z" />
<glyph unicode="&#x141;" horiz-adv-x="882" d="M4 672v65l115 29v508q0 62 -54 91h234q-54 -29 -54 -91v-473l134 36v-65l-134 -35v-653q118 -15 205 -15h11h98t75 2.5t64.5 7.5t47 13.5t42 22.5t30.5 33t31 47l-35 -195h-749q54 26 54 90v613z" />
<glyph unicode="&#x142;" horiz-adv-x="370" d="M-18 672v65l120 31v486q0 21 -5 35.5t-16.5 22.5t-20 11.5t-24.5 7.5q-4 1 -6 2l183 48v-582l142 38v-65l-142 -37v-661q0 -31 12.5 -45.5t41.5 -28.5h-217q28 14 40 28.5t12 45.5v631z" />
<glyph unicode="&#x143;" horiz-adv-x="1304" d="M12 1365h203l846 -1070v979q0 63 -54 91h183q-54 -29 -54 -91v-1290q-950 1182 -950 1202v-1096q0 -65 55 -90h-181q55 27 55 90v1142q0 32 -2 39.5t-11 23.5q-36 52 -90 70zM550 1429q-4 4 35.5 52t80.5 93l41 46q9 12 16 19.5t18 17t22.5 14.5t23.5 5q24 0 40 -17 t16 -41q0 -22 -17.5 -40t-40.5 -29l-147 -83q-82 -43 -88 -37z" />
<glyph unicode="&#x144;" horiz-adv-x="932" d="M30 891l183 48v-150q14 18 40.5 41t64 48.5t86 43t94.5 17.5q52 0 102.5 -18t92.5 -50t68 -83.5t26 -113.5v-600q0 -31 12 -45.5t40 -28.5h-213q28 14 40 28.5t12 45.5v528q0 247 -238 247q-65 0 -124.5 -34.5t-102.5 -81.5v-659q0 -31 12.5 -45.5t41.5 -28.5h-217 q28 14 40 28.5t12 45.5v738q0 21 -5 35.5t-16.5 22.5t-20 11.5t-24.5 7.5q-4 1 -6 2zM360 1002q-4 4 34.5 51t78.5 92l41 45q42 57 80 57q24 0 41.5 -17t17.5 -42q0 -36 -61 -68l-145 -82q-81 -43 -87 -36z" />
<glyph unicode="&#x147;" horiz-adv-x="1304" d="M12 1365h203l846 -1070v979q0 63 -54 91h183q-54 -29 -54 -91v-1290q-950 1182 -950 1202v-1096q0 -65 55 -90h-181q55 27 55 90v1142q0 32 -2 39.5t-11 23.5q-36 52 -90 70zM345 1674q5 5 72.5 -27t132.5 -67l64 -35l171 90q92 45 98 39q7 -7 -124.5 -127t-144.5 -120 q-9 0 -142 120t-127 127z" />
<glyph unicode="&#x148;" horiz-adv-x="932" d="M30 891l183 48v-150q14 18 40.5 41t64 48.5t86 43t94.5 17.5q52 0 102.5 -18t92.5 -50t68 -83.5t26 -113.5v-600q0 -31 12 -45.5t40 -28.5h-213q28 14 40 28.5t12 45.5v528q0 247 -238 247q-65 0 -124.5 -34.5t-102.5 -81.5v-659q0 -31 12.5 -45.5t41.5 -28.5h-217 q28 14 40 28.5t12 45.5v738q0 21 -5 35.5t-16.5 22.5t-20 11.5t-24.5 7.5q-4 1 -6 2zM197 1245q3 3 32 -9t68 -31.5t77 -39.5t65 -34l27 -15l172 90q90 44 97 39q5 -5 -59.5 -66t-133.5 -120t-76 -59q-10 0 -142.5 119t-126.5 126z" />
<glyph unicode="&#x150;" horiz-adv-x="1542" d="M20 705q2 77 26.5 158t68.5 157.5t110.5 143.5t147 117t184.5 77t218 23q82 -3 165.5 -25.5t162 -63.5t146.5 -103t118 -138.5t77 -175.5t23 -209q-3 -108 -38 -206t-91.5 -171.5t-130 -133t-155 -97t-165 -56t-161.5 -16.5q-80 3 -158 22.5t-148.5 54.5t-133 82 t-112.5 108.5t-85.5 131t-53.5 151.5t-15 169zM169 709q0 -131 34.5 -241t92.5 -185t133.5 -127.5t155.5 -77t160 -24.5q165 0 294 77.5t200 215.5t71 314q0 115 -26.5 217t-76.5 181t-118.5 136.5t-156 88t-185.5 30.5q-123 0 -229.5 -42t-183.5 -119t-121 -191.5 t-44 -252.5zM609 1479l142 183q3 4 14.5 19t17.5 22t17.5 18.5t19.5 16t19 8.5t21.5 0.5t20.5 -12.5q9 -8 14 -15t6 -14t0 -13t-6 -13.5t-9.5 -12.5t-13 -12.5t-14.5 -12l-16 -12t-15 -11.5l-205 -153zM847 1479l141 183q13 18 18.5 25t19 23t23 21.5t22.5 12t25 3.5t24 -13 q14 -12 18 -24.5t1 -22t-15 -22.5t-21 -20t-27 -19q-7 -5 -11 -8l-202 -153z" />
<glyph unicode="&#x151;" horiz-adv-x="923" d="M18 471q0 67 18.5 134.5t54.5 128.5t84.5 108t115.5 74.5t142 27.5q86 -1 156 -30t116.5 -76.5t78.5 -110.5t45.5 -129t13.5 -134q-1 -66 -20 -133.5t-55.5 -128t-86 -108.5t-116 -76t-140.5 -28q-82 1 -151.5 30t-116 77t-79 110.5t-47 129.5t-13.5 134zM142 454 q3 -61 16 -119.5t38 -112t60 -93.5t84.5 -62.5t107.5 -20.5q58 3 105.5 30t78.5 69.5t51.5 98t28 115t4.5 120.5q-3 62 -16 121t-38 112.5t-59.5 93.5t-84 62.5t-106.5 20.5q-72 -4 -127 -43.5t-86 -103t-45.5 -137t-11.5 -151.5zM261 1017l143 183q4 5 11.5 15t13 16.5 t13.5 16t14 15t14 11.5t15.5 8.5t15.5 3t16.5 -3t16.5 -10.5q11 -9 16.5 -18t3.5 -18.5t-4.5 -16.5t-13.5 -17l-16.5 -15t-20.5 -16t-20 -15l-204 -152zM500 1017l140 183q11 15 14 19t14 17.5t16 18.5t15.5 14t18 11.5t17.5 4.5t19 -1.5t18 -11.5q15 -12 18.5 -24.5t1 -22 t-15 -22.5t-21.5 -20t-26 -19q-3 -2 -4 -3t-3 -2t-4 -3l-203 -152z" />
<glyph unicode="&#x152;" horiz-adv-x="1701" d="M16 676q0 77 21.5 157.5t62.5 158.5t105 147t142 121t180.5 82.5t215.5 30.5q78 0 150 -8h689v-139q-14 24 -54 45.5t-81 23.5q-112 2 -209 2t-138 -1l-41 -1v-502h350q20 0 41 18t29 38v-179q-8 21 -28.5 38.5t-41.5 17.5h-350v-642q118 -15 205 -15h12h97.5t75.5 2.5 t64 7.5t47 13.5t42.5 22.5t30.5 33t31 47l-34 -195h-739q-65 -12 -150 -12q-111 0 -218 32t-198 93t-160.5 143.5t-109 191t-39.5 228.5zM163 705q0 -82 13.5 -156t38.5 -133.5t59.5 -111t76 -90.5t87.5 -69t95.5 -49t98.5 -28.5t98 -9.5q57 0 97 12.5t63 37t33 55t10 70.5 v909q0 49 -15.5 82.5t-45 50t-62.5 23t-77 6.5q-122 0 -226.5 -41.5t-180.5 -118t-119.5 -190t-43.5 -249.5z" />
<glyph unicode="&#x153;" horiz-adv-x="1584" d="M16 469q0 66 18 133t54 127.5t85 107t116 74.5t142 28q70 0 127 -18.5t91.5 -44.5t60 -52.5t44.5 -45t33 -18.5q12 0 29.5 13.5t36.5 33.5t49.5 43t65 42.5t86.5 33t110 13.5q44 0 90 -13.5t92 -44t82 -74.5t58.5 -112t22.5 -149h-660q0 -10 -1 -36.5t-1 -38.5 q0 -180 86 -286.5t247 -106.5q101 0 200.5 72t130.5 151q-5 -61 -34.5 -118t-76.5 -100.5t-111.5 -70t-136.5 -26.5q-54 0 -101 10.5t-79.5 27.5t-60 37t-46.5 40.5t-34.5 37t-29 27t-24.5 10.5q-13 0 -32.5 -19.5t-46 -47.5t-61.5 -56t-91 -47.5t-123 -19.5 q-82 0 -151 29.5t-115.5 77.5t-79 111t-47 130t-14.5 135zM140 467q0 -61 10 -121t32.5 -115t55 -97t80.5 -67t105 -25q59 0 107.5 24.5t82 66t57 96t34 113t10.5 120.5t-9.5 121t-32 114.5t-54.5 96.5t-80.5 66t-106.5 25q-71 0 -128.5 -37t-92 -97.5t-52.5 -133.5 t-18 -150zM855 598h526q0 80 -20.5 138t-56.5 89.5t-77.5 45.5t-90.5 14q-63 0 -114 -24t-84 -66t-53.5 -91t-29.5 -106z" />
<glyph unicode="&#x154;" horiz-adv-x="1029" d="M65 0q54 26 54 90v1184q0 62 -54 91h320q81 0 148.5 -12.5t114.5 -32.5t83.5 -48.5t58.5 -58t36 -63t19.5 -61.5t5.5 -55q0 -53 -14.5 -100.5t-38.5 -83.5t-54.5 -65.5t-64.5 -49.5t-66 -31.5t-61 -15.5q29 -8 55 -25t47.5 -42.5t32.5 -40.5t27 -40q22 -39 56.5 -100.5 t113.5 -186t125 -173.5q20 -20 52.5 -40t55.5 -30l23 -10h-156q-27 0 -50.5 8.5t-41.5 23.5t-29 28t-22 30q-53 79 -95 145t-87 140t-63 102q-4 7 -16 26.5t-17 27.5t-16.5 25t-19.5 24.5t-20.5 20t-24 18.5t-26.5 13t-32.5 9.5t-36.5 2.5l-142 -2v-552q0 -64 54 -90h-234z M245 712q68 -3 136 -3q65 0 124 20.5t106.5 59t75 101t27.5 140.5q0 33 -8 67t-28.5 72t-52 67t-83.5 47.5t-117 18.5q-53 0 -98 -2t-64 -3l-18 -2v-583zM364 1441q-4 4 34.5 51.5t78.5 92.5l40 45q42 56 81 56q25 0 42 -16.5t17 -41.5q0 -37 -61 -69l-145 -82 q-81 -43 -87 -36z" />
<glyph unicode="&#x155;" horiz-adv-x="547" d="M30 891l183 48v-179q33 54 101 116.5t117 62.5q17 0 28.5 -1.5t15.5 -2.5t12.5 -5.5t14.5 -6.5v-124q-21 13 -30.5 18t-27.5 9.5t-40 4.5q-96 0 -191 -128v-629q0 -31 12.5 -45.5t41.5 -28.5h-217q28 14 40 28.5t12 45.5v738q0 21 -5 35.5t-16.5 22.5t-20 11.5t-24.5 7.5 q-4 1 -6 2zM189 1002q-3 4 35.5 51t78.5 92l40 45q42 57 80 57q16 0 29.5 -7.5t21.5 -21t8 -30.5q0 -36 -61 -68l-145 -82q-81 -43 -87 -36z" />
<glyph unicode="&#x158;" horiz-adv-x="1029" d="M65 0q54 26 54 90v1184q0 62 -54 91h320q81 0 148.5 -12.5t114.5 -32.5t83.5 -48.5t58.5 -58t36 -63t19.5 -61.5t5.5 -55q0 -53 -14.5 -100.5t-38.5 -83.5t-54.5 -65.5t-64.5 -49.5t-66 -31.5t-61 -15.5q29 -8 55 -25t47.5 -42.5t32.5 -40.5t27 -40q22 -39 56.5 -100.5 t113.5 -186t125 -173.5q20 -20 52.5 -40t55.5 -30l23 -10h-156q-27 0 -50.5 8.5t-41.5 23.5t-29 28t-22 30q-53 79 -95 145t-87 140t-63 102q-4 7 -16 26.5t-17 27.5t-16.5 25t-19.5 24.5t-20.5 20t-24 18.5t-26.5 13t-32.5 9.5t-36.5 2.5l-142 -2v-552q0 -64 54 -90h-234z M245 712q68 -3 136 -3q65 0 124 20.5t106.5 59t75 101t27.5 140.5q0 33 -8 67t-28.5 72t-52 67t-83.5 47.5t-117 18.5q-53 0 -98 -2t-64 -3l-18 -2v-583zM245 1731q5 5 72 -27t132 -67l65 -35l172 90q90 44 97 39q5 -5 -59.5 -66t-133.5 -120t-76 -59q-10 0 -142.5 119 t-126.5 126z" />
<glyph unicode="&#x159;" horiz-adv-x="547" d="M2 1245q3 3 32 -9t68 -31.5t77 -39.5t65 -34l26 -15l173 90q91 45 97 39q5 -5 -59.5 -66t-133.5 -120t-77 -59q-9 0 -140.5 119t-127.5 126zM30 891l183 48v-179q33 54 101 116.5t117 62.5q17 0 28.5 -1.5t15.5 -2.5t12.5 -5.5t14.5 -6.5v-124q-21 13 -30.5 18t-27.5 9.5 t-40 4.5q-96 0 -191 -128v-629q0 -31 12.5 -45.5t41.5 -28.5h-217q28 14 40 28.5t12 45.5v738q0 21 -5 35.5t-16.5 22.5t-20 11.5t-24.5 7.5q-4 1 -6 2z" />
<glyph unicode="&#x15a;" horiz-adv-x="876" d="M12 369q16 -47 35.5 -88t51.5 -85.5t70 -75.5t92.5 -51.5t117.5 -20.5q68 0 120.5 22t83 54t49.5 74.5t25.5 78.5t6.5 70q0 46 -7 81.5t-28.5 66t-40 50.5t-60.5 45t-70.5 39t-89.5 42q-15 7 -23 11q-65 30 -112.5 58t-88 61.5t-65.5 69.5t-39 80t-14 95q0 76 33 140.5 t87.5 106.5t125 65t147.5 23q157 0 267 -83l11 -230q-5 27 -21 59.5t-43.5 66.5t-63 61.5t-84 45.5t-100.5 18q-55 0 -98 -15.5t-68.5 -39.5t-42 -56t-22 -60.5t-5.5 -57.5q0 -48 13 -83t48 -69t81.5 -63t127.5 -72q21 -11 59 -30t58.5 -29.5t53 -28.5t50.5 -31t43.5 -33.5 t40 -39t31 -44.5t24.5 -53t14 -61t6 -72q0 -73 -26.5 -137.5t-69.5 -110.5t-98 -80t-113 -50.5t-113 -16.5q-60 0 -115 11.5t-104 35t-74.5 38.5t-65.5 42zM295 1449q-4 5 35 52t79 92l41 45q42 56 80 56q25 0 41.5 -16.5t16.5 -41.5q0 -36 -61 -68l-145 -82 q-81 -43 -87 -37z" />
<glyph unicode="&#x15b;" horiz-adv-x="632" d="M6 84v229q17 -73 49.5 -131t85 -96t116.5 -38q44 0 79.5 13.5t56.5 34t35.5 45.5t20 46t5.5 37q0 21 -4.5 39t-10 31.5t-19.5 28.5t-24 24.5t-33 24.5t-36.5 23t-45 26.5t-48.5 28.5q-115 68 -159 122.5t-44 137.5q0 27 8 55.5t27.5 60t48 56t75.5 41t104 16.5 q99 0 201 -70v-205q-12 44 -29.5 81t-43 70t-63 52.5t-81.5 19.5q-71 0 -113.5 -43t-42.5 -91q0 -26 7.5 -48t18.5 -38t36.5 -36t46.5 -33t63 -38q4 -3 11 -7q32 -19 48 -29t44.5 -28.5t44 -31.5t37.5 -33t34 -38.5t24.5 -41t18 -48t5.5 -52.5q0 -61 -28 -112t-73 -84 t-100 -51t-112 -18q-32 0 -64.5 8t-52.5 15.5t-51.5 26.5t-38 23.5t-34.5 24.5zM205 1000q-4 4 35 51t79 92l41 45q42 57 80 57q25 0 41.5 -17t16.5 -42q0 -36 -61 -68l-145 -82q-81 -43 -87 -36z" />
<glyph unicode="&#x15e;" horiz-adv-x="876" d="M12 369q16 -47 35.5 -88t51.5 -85.5t70 -75.5t92.5 -51.5t117.5 -20.5q68 0 120.5 22t83 54t49.5 74.5t25.5 78.5t6.5 70q0 46 -7 81.5t-28.5 66t-40 50.5t-60.5 45t-70.5 39t-89.5 42q-15 7 -23 11q-65 30 -112.5 58t-88 61.5t-65.5 69.5t-39 80t-14 95q0 76 33 140.5 t87.5 106.5t125 65t147.5 23q157 0 267 -83l11 -230q-5 27 -21 59.5t-43.5 66.5t-63 61.5t-84 45.5t-100.5 18q-55 0 -98 -15.5t-68.5 -39.5t-42 -56t-22 -60.5t-5.5 -57.5q0 -48 13 -83t48 -69t81.5 -63t127.5 -72q21 -11 59 -30t58.5 -29.5t53 -28.5t50.5 -31t43.5 -33.5 t40 -39t31 -44.5t24.5 -53t14 -61t6 -72q0 -73 -26.5 -137.5t-69.5 -110.5t-98 -80t-113 -50.5t-113 -16.5q-60 0 -115 11.5t-104 35t-74.5 38.5t-65.5 42zM261 -283q75 -62 116 -62q30 0 53.5 14t36 36.5t12.5 49.5q0 41 -25.5 67.5t-62.5 26.5q-25 0 -44.5 -10t-45.5 -32 l113 243h23l-54 -144q18 0 36.5 -2.5t45 -11.5t46.5 -24t34.5 -44t14.5 -67q0 -66 -46.5 -106t-120.5 -40q-35 0 -61.5 11.5t-40.5 30.5t-20.5 34t-9.5 30z" />
<glyph unicode="&#x15f;" horiz-adv-x="632" d="M6 84v229q17 -73 49.5 -131t85 -96t116.5 -38q44 0 79.5 13.5t56.5 34t35.5 45.5t20 46t5.5 37q0 21 -4.5 39t-10 31.5t-19.5 28.5t-24 24.5t-33 24.5t-36.5 23t-45 26.5t-48.5 28.5q-115 68 -159 122.5t-44 137.5q0 27 8 55.5t27.5 60t48 56t75.5 41t104 16.5 q99 0 201 -70v-205q-12 44 -29.5 81t-43 70t-63 52.5t-81.5 19.5q-71 0 -113.5 -43t-42.5 -91q0 -26 7.5 -48t18.5 -38t36.5 -36t46.5 -33t63 -38q4 -3 11 -7q32 -19 48 -29t44.5 -28.5t44 -31.5t37.5 -33t34 -38.5t24.5 -41t18 -48t5.5 -52.5q0 -61 -28 -112t-73 -84 t-100 -51t-112 -18q-32 0 -64.5 8t-52.5 15.5t-51.5 26.5t-38 23.5t-34.5 24.5zM184 -293q76 -62 117 -62q45 0 74 29.5t29 70.5t-26 67.5t-62 26.5q-25 0 -45.5 -9.5t-46.5 -32.5l113 243h25l-55 -144q17 0 36 -2.5t45.5 -11.5t46.5 -24t34.5 -44t14.5 -67 q0 -66 -46.5 -106.5t-119.5 -40.5q-35 0 -62 12t-41 31t-21 34t-10 30z" />
<glyph unicode="&#x160;" horiz-adv-x="876" d="M12 369q16 -47 35.5 -88t51.5 -85.5t70 -75.5t92.5 -51.5t117.5 -20.5q68 0 120.5 22t83 54t49.5 74.5t25.5 78.5t6.5 70q0 46 -7 81.5t-28.5 66t-40 50.5t-60.5 45t-70.5 39t-89.5 42q-15 7 -23 11q-65 30 -112.5 58t-88 61.5t-65.5 69.5t-39 80t-14 95q0 76 33 140.5 t87.5 106.5t125 65t147.5 23q157 0 267 -83l11 -230q-5 27 -21 59.5t-43.5 66.5t-63 61.5t-84 45.5t-100.5 18q-55 0 -98 -15.5t-68.5 -39.5t-42 -56t-22 -60.5t-5.5 -57.5q0 -48 13 -83t48 -69t81.5 -63t127.5 -72q21 -11 59 -30t58.5 -29.5t53 -28.5t50.5 -31t43.5 -33.5 t40 -39t31 -44.5t24.5 -53t14 -61t6 -72q0 -73 -26.5 -137.5t-69.5 -110.5t-98 -80t-113 -50.5t-113 -16.5q-60 0 -115 11.5t-104 35t-74.5 38.5t-65.5 42zM132 1674q6 5 73 -27t132 -67l65 -35l171 90q91 45 97 39q7 -7 -124.5 -127t-143.5 -120q-10 0 -142.5 120 t-127.5 127z" />
<glyph unicode="&#x161;" horiz-adv-x="632" d="M6 84v229q17 -73 49.5 -131t85 -96t116.5 -38q44 0 79.5 13.5t56.5 34t35.5 45.5t20 46t5.5 37q0 21 -4.5 39t-10 31.5t-19.5 28.5t-24 24.5t-33 24.5t-36.5 23t-45 26.5t-48.5 28.5q-115 68 -159 122.5t-44 137.5q0 27 8 55.5t27.5 60t48 56t75.5 41t104 16.5 q99 0 201 -70v-205q-12 44 -29.5 81t-43 70t-63 52.5t-81.5 19.5q-71 0 -113.5 -43t-42.5 -91q0 -26 7.5 -48t18.5 -38t36.5 -36t46.5 -33t63 -38q4 -3 11 -7q32 -19 48 -29t44.5 -28.5t44 -31.5t37.5 -33t34 -38.5t24.5 -41t18 -48t5.5 -52.5q0 -61 -28 -112t-73 -84 t-100 -51t-112 -18q-32 0 -64.5 8t-52.5 15.5t-51.5 26.5t-38 23.5t-34.5 24.5zM20 1283q5 5 72.5 -27t131.5 -67l65 -35l171 90q92 45 98 39q2 -3 -23 -29t-63.5 -61.5t-78 -71t-69.5 -59.5t-35 -24q-10 0 -142.5 119t-126.5 126z" />
<glyph unicode="&#x162;" horiz-adv-x="1670" d="M333 1206v159h1012v-159q-17 30 -45.5 53.5t-64.5 25.5q-183 10 -329 10v-1205q0 -65 51 -90h-233q53 26 53 90v1205q-67 0 -151 -2.5t-134 -5.5l-50 -2q-35 -2 -64 -25.5t-45 -53.5zM697 -233q27 -23 47 -36t36.5 -19.5t31.5 -6.5q46 0 74.5 29t28.5 71q0 27 -12 49 t-32 34t-44 12q-25 0 -44.5 -10t-45.5 -32l112 242h24l-54 -144q18 0 36.5 -2.5t45 -11.5t46.5 -24t34.5 -44t14.5 -67q0 -66 -46.5 -106t-120.5 -40q-35 0 -61.5 11.5t-40.5 30.5t-20.5 34t-9.5 30z" />
<glyph unicode="&#x163;" horiz-adv-x="1670" d="M364 855l180 223v-163h293v-60h-295v-592q0 -44 8.5 -78.5t23.5 -56.5t33 -38t39.5 -24t40 -11t37.5 -3q16 0 30 1.5t24 3t20.5 6t16.5 7t14.5 8.5t11.5 8t11 9.5t9 8.5q0 -39 -58.5 -79.5t-124.5 -40.5q-50 0 -92.5 15.5t-77 46.5t-54 83.5t-19.5 121.5v604h-71z M534 -136q0 26 17 43t43 17q28 0 49 -23.5t21 -57.5q0 -54 -18.5 -107t-42.5 -84t-45 -37q-5 -3 -7 2t5 8q16 5 36 62.5t20 123.5q-5 -6 -18 -6q-17 0 -30.5 8t-21.5 21.5t-8 29.5z" />
<glyph unicode="&#x164;" horiz-adv-x="980" d="M-44 1206v159h1009v-159q-10 19 -24 35t-37.5 29.5t-48.5 14.5q-182 10 -329 10v-1205q0 -65 52 -90h-233q53 26 53 90v1205q-67 0 -151 -2.5t-135 -5.5l-50 -2q-35 -2 -62.5 -25t-43.5 -54zM197 1666q5 5 72 -27t132 -67l65 -34l172 89q90 44 97 39q3 -3 -22.5 -29.5 t-64 -62t-78.5 -71t-70 -60t-34 -24.5q-10 0 -142.5 120t-126.5 127z" />
<glyph unicode="&#x165;" horiz-adv-x="601" d="M16 857l181 223v-163h293v-60h-295v-592q0 -52 12.5 -91.5t31.5 -61.5t45 -35.5t48 -18t45 -4.5q18 0 33 1.5t27.5 5.5t21 6.5t18 9t13.5 9.5t13 11t11 10q0 -39 -58.5 -80t-124.5 -41q-49 0 -92 15.5t-77 46.5t-54 83.5t-20 121.5v604h-72zM313 1230q0 26 17.5 43.5 t42.5 17.5q28 0 49.5 -23.5t21.5 -57.5q0 -81 -36.5 -150t-70.5 -79q-5 -4 -7 3q-1 5 5 8q16 5 36 62.5t20 123.5q-6 -6 -18 -6q-25 0 -42.5 17t-17.5 41z" />
<glyph unicode="&#x16e;" horiz-adv-x="1183" d="M38 1377h257q-64 -35 -64 -90v-858q0 -32 3.5 -62.5t13.5 -67.5t25.5 -69t42.5 -63t63 -52.5t88 -34.5t115 -13q73 0 131.5 13.5t99 39t69.5 57.5t45 73t23 81.5t7 85.5l-3 870q0 62 -52 90h184q-52 -28 -52 -90l-11 -866q-1 -91 -26.5 -163.5t-67.5 -120.5t-100 -80 t-122 -45.5t-137 -13.5q-65 0 -128 13.5t-125.5 46t-109.5 80.5t-76 123.5t-29 167.5v858q0 55 -64 90zM458 1576q0 31 11.5 59.5t31 49.5t46 34t55.5 13q58 0 102.5 -46.5t44.5 -109.5q0 -31 -12.5 -60t-32.5 -50t-47 -34t-55 -13q-39 0 -72 21.5t-52.5 57.5t-19.5 78z M504 1576q0 -48 27 -77.5t70.5 -29.5t71.5 29.5t28 77.5q0 46 -28 76t-71.5 30t-70.5 -30t-27 -76z" />
<glyph unicode="&#x16f;" horiz-adv-x="936" d="M18 891l183 48v-581q0 -128 60.5 -205t159.5 -77q40 0 72 7.5t62 24.5t48.5 30.5t51.5 41.5q9 7 13 11v621q0 21 -5 35t-16 22t-19 11.5t-24 8.5q-4 1 -6 2l181 48v-807q0 -39 18 -68.5t62 -35.5l-124 -42q-23 16 -31 23t-19 23t-14 37.5t-3 56.5q-121 -140 -293 -140 q-34 0 -69.5 9.5t-75.5 35.5t-70.5 65.5t-51 106.5t-20.5 152v457q0 21 -5 35t-16 22t-19 11.5t-24 8.5q-4 1 -6 2zM301 1156.5q0 63.5 43 109.5t102 46q58 0 102 -46.5t44 -109t-44 -109.5t-102 -47q-59 0 -102 46.5t-43 110zM347 1156q0 -31 12.5 -55.5t35 -37.5t51.5 -13 t51 13t34.5 37.5t12.5 55.5q0 47 -27.5 76.5t-70.5 29.5t-71 -29.5t-28 -76.5z" />
<glyph unicode="&#x170;" horiz-adv-x="1183" d="M42 1385h257q-64 -35 -64 -90v-858q0 -32 3.5 -62.5t13 -67.5t25.5 -69t43 -63t63 -52.5t88 -35t115 -13.5q87 0 153.5 20.5t108 53.5t67.5 79.5t36 94.5t10 103l-4 870q0 61 -51 90h184q-52 -29 -52 -90l-10 -866q-1 -91 -26.5 -164t-67.5 -121t-100.5 -80t-122.5 -46 t-137 -14q-65 0 -128 13.5t-125.5 46.5t-109 81.5t-75.5 123.5t-29 168v858q0 54 -65 90zM412 1437l142 183q3 4 14.5 19t17.5 21.5t17.5 18.5t19.5 16.5t19 8t21.5 0.5t20.5 -13q8 -6 12.5 -12.5t6.5 -12.5t1 -12.5t-3 -12t-7.5 -12t-10 -11t-12.5 -11t-13.5 -10.5 t-14 -10.5t-13.5 -10.5l-205 -153zM651 1437l140 183q13 18 18.5 25t19.5 23t23 21.5t22 12t25 3.5t24 -14q15 -11 18.5 -23.5t0.5 -22.5t-15 -22.5t-21 -19.5t-27 -20q-2 -1 -3 -2t-3 -2.5t-4 -2.5l-203 -153z" />
<glyph unicode="&#x171;" horiz-adv-x="936" d="M18 891l183 48v-581q0 -128 60.5 -205t159.5 -77q40 0 72 7.5t62 24.5t48.5 30.5t51.5 41.5q9 7 13 11v621q0 21 -5 35t-16 22t-19 11.5t-24 8.5q-4 1 -6 2l181 48v-807q0 -39 18 -68.5t62 -35.5l-124 -42q-23 16 -31 23t-19 23t-14 37.5t-3 56.5q-121 -140 -293 -140 q-34 0 -69.5 9.5t-75.5 35.5t-70.5 65.5t-51 106.5t-20.5 152v457q0 21 -5 35t-16 22t-19 11.5t-24 8.5q-4 1 -6 2zM263 1017l143 183q4 5 11.5 15t13 16.5t13.5 16t14 15t14 11.5t15.5 8.5t15.5 3t16.5 -3t16.5 -10.5q8 -6 12.5 -13t7 -12.5t1 -12.5t-3.5 -12t-7.5 -11.5 t-10 -11t-12.5 -11t-13 -11t-14 -11t-14 -10.5l-205 -152zM502 1017l140 183q15 21 22.5 30.5t24 26.5t28.5 22.5t28 5t30 -12.5t18 -24.5t1 -22t-15 -22t-21 -19.5t-27 -20q-2 -1 -3.5 -2t-3.5 -2.5t-4 -3.5l-203 -152z" />
<glyph unicode="&#x178;" horiz-adv-x="888" d="M-128 1365h323q-2 0 -5 -2q-18 -7 -27 -11t-19.5 -14t-11.5 -21.5t5 -30.5t22 -45l303 -502l277 529q13 24 16.5 39.5t-3.5 26t-17.5 17t-31.5 14.5h224q-30 -15 -48.5 -27.5t-33 -29t-28.5 -40.5l-323 -609v-569q0 -56 70 -90h-279q73 35 73 90v563l-370 615 q-20 34 -45 54t-71 43zM237 1528q0 30 21.5 50.5t52 20.5t52.5 -20.5t22 -50.5q0 -32 -22.5 -53.5t-53.5 -21.5q-20 0 -36.5 10t-26 27t-9.5 38zM498 1528q0 30 21 50.5t51 20.5q32 0 53 -20.5t21 -50.5q0 -21 -9.5 -38t-26.5 -27t-38 -10q-30 0 -51 21.5t-21 53.5z" />
<glyph unicode="&#x179;" horiz-adv-x="963" d="M-40 0l762 1295q-58 0 -149 2t-143.5 2.5t-114.5 -1t-103 -6.5t-68 -15q-42 -16 -77.5 -47t-48.5 -58v193h901l-760 -1292q6 0 63 -1.5t118.5 -1.5t138.5 1t153 7t132 16q46 8 77.5 37.5t47.5 61.5v-193h-929zM347 1427q-4 4 35.5 52t80.5 93l41 46q13 16 22.5 26 t25.5 20t32 10t29 -8t20 -21t7 -29q0 -15 -10 -29.5t-22 -23.5t-26 -16l-147 -83q-82 -43 -88 -37z" />
<glyph unicode="&#x17a;" horiz-adv-x="747" d="M-24 0l530 857q-65 1 -193 0.5t-194 -2.5q-43 -2 -66.5 -18t-36.5 -44l7 124h647l-526 -857q301 0 446 9q21 1 37.5 6t26 10t18.5 16.5t12 17t9 19.5t8 17l-6 -155h-719zM205 1000q-4 4 35 51t79 92l41 45q42 57 80 57q25 0 41.5 -17t16.5 -42q0 -36 -61 -68l-145 -82 q-81 -43 -87 -36z" />
<glyph unicode="&#x17c;" horiz-adv-x="747" d="M-24 0l530 857q-65 1 -193 0.5t-194 -2.5q-43 -2 -66.5 -18t-36.5 -44l7 124h647l-526 -857q301 0 446 9q21 1 37.5 6t26 10t18.5 16.5t12 17t9 19.5t8 17l-6 -155h-719zM251 1128q0 23 12.5 43t32.5 31.5t43 11.5q42 0 69 -23.5t27 -62.5q0 -18 -7 -34.5t-19 -27.5 t-29 -17.5t-35 -6.5q-43 0 -68.5 24t-25.5 62z" />
<glyph unicode="&#x17d;" horiz-adv-x="963" d="M-40 0l762 1295q-58 0 -149 2t-143.5 2.5t-114.5 -1t-103 -6.5t-68 -15q-42 -16 -77.5 -47t-48.5 -58v193h901l-760 -1292q6 0 63 -1.5t118.5 -1.5t138.5 1t153 7t132 16q46 8 77.5 37.5t47.5 61.5v-193h-929zM193 1674q5 5 72.5 -27t131.5 -67l65 -35l171 90 q91 45 97 39q5 -5 -59 -66.5t-133 -121t-76 -59.5q-10 0 -142 120t-127 127z" />
<glyph unicode="&#x17e;" horiz-adv-x="747" d="M-24 0l530 857q-65 1 -193 0.5t-194 -2.5q-43 -2 -66.5 -18t-36.5 -44l7 124h647l-526 -857q301 0 446 9q21 1 37.5 6t26 10t18.5 16.5t12 17t9 19.5t8 17l-6 -155h-719zM82 1245q4 3 32.5 -9t67.5 -31.5t77.5 -39.5t64.5 -34l27 -15l172 90q90 44 97 39q5 -5 -59 -66 t-133.5 -120t-76.5 -59q-10 0 -142 119t-127 126z" />
<glyph unicode="&#x192;" horiz-adv-x="684" d="M-205 -303l19 131q0 -30 11.5 -59.5t34.5 -50.5t52 -21q62 0 99 44.5t45 111.5l135 1004h-145l8 60h145l29 209q11 70 40.5 126t83.5 92.5t123 36.5q86 0 161 -56l-16 -147q-10 60 -50 106.5t-88 46.5q-128 0 -149 -197l-22 -217h241l-10 -60h-239l-138 -961 q-10 -65 -33 -112.5t-56.5 -75t-72.5 -40.5t-85 -13q-41 0 -66 9t-57 33z" />
<glyph unicode="&#x2c6;" horiz-adv-x="689" d="M8 1070q0 53 14.5 99t39 78.5t56 58.5t67 41.5t69.5 23.5t65 8q76 0 137 -33t99.5 -89.5t58.5 -128.5t20 -153q0 -71 -19.5 -144t-55 -137t-82.5 -114t-106 -79.5t-120 -29.5q-69 0 -113.5 22.5t-61.5 56.5q24 -13 33 -17.5t26.5 -10.5t36.5 -7t48 -1q53 0 100.5 23.5 t82 62.5t61 88t41.5 99.5t19 97.5q-70 -98 -233 -98q-47 0 -95.5 18.5t-91 52.5t-69.5 90t-27 122zM104 1092q0 -14 2.5 -32.5t9 -44t16.5 -50t27.5 -49t39 -42.5t53.5 -29.5t69 -11.5q99 0 158 69.5t59 165.5q0 116 -64.5 190.5t-152.5 74.5q-44 0 -79.5 -12t-58 -29 t-38.5 -43t-23.5 -47t-12 -47t-5 -38t-0.5 -25z" />
<glyph unicode="&#x2da;" horiz-adv-x="932" d="M309 1122.5q0 70.5 43 122.5t102 52q57 0 101.5 -52.5t44.5 -122.5q0 -34 -12.5 -66.5t-32 -56t-46.5 -37.5t-55 -14q-59 0 -102 52t-43 122.5zM355 1122q0 -53 27.5 -85.5t71 -32.5t71 32.5t27.5 85.5t-27.5 86t-71 33t-71 -33t-27.5 -86z" />
<glyph unicode="&#x2dc;" horiz-adv-x="796" d="M90 1054q2 11 20.5 31.5t45.5 42t63.5 37t69.5 15.5q28 0 102.5 -30t102.5 -30q29 0 53 10.5t33 21.5l10 10l38 -14q-3 -5 -10 -12t-27.5 -26t-42 -33t-51.5 -25.5t-57 -11.5q-39 0 -82 17t-76 33.5t-49 16.5q-25 0 -51 -14.5t-40 -29.5l-14 -15z" />
<glyph unicode="&#x2000;" horiz-adv-x="874" />
<glyph unicode="&#x2001;" horiz-adv-x="1748" />
<glyph unicode="&#x2002;" horiz-adv-x="874" />
<glyph unicode="&#x2003;" horiz-adv-x="1748" />
<glyph unicode="&#x2004;" horiz-adv-x="582" />
<glyph unicode="&#x2005;" horiz-adv-x="437" />
<glyph unicode="&#x2006;" horiz-adv-x="291" />
<glyph unicode="&#x2007;" horiz-adv-x="291" />
<glyph unicode="&#x2008;" horiz-adv-x="218" />
<glyph unicode="&#x2009;" horiz-adv-x="349" />
<glyph unicode="&#x200a;" horiz-adv-x="97" />
<glyph unicode="&#x2010;" horiz-adv-x="458" d="M60 477v89h340v-89h-340z" />
<glyph unicode="&#x2011;" horiz-adv-x="458" d="M60 477v89h340v-89h-340z" />
<glyph unicode="&#x2012;" horiz-adv-x="458" d="M60 477v89h340v-89h-340z" />
<glyph unicode="&#x2013;" horiz-adv-x="730" d="M80 624v133h571v-133h-571z" />
<glyph unicode="&#x2014;" horiz-adv-x="1239" d="M60 490v64h1120v-64h-1120z" />
<glyph unicode="&#x2018;" horiz-adv-x="272" d="M28 1114q0 102 45 188t88 99q7 4 9 -4q2 -6 -7 -8q-20 -7 -45.5 -79.5t-25.5 -155.5q8 8 25 8q31 0 52.5 -21t21.5 -51q0 -32 -21.5 -53.5t-52.5 -21.5q-36 0 -62.5 29t-26.5 70z" />
<glyph unicode="&#x2019;" horiz-adv-x="272" d="M23 1306q0 32 21 53.5t52 21.5q35 0 61.5 -28.5t26.5 -69.5q0 -102 -44.5 -188t-87.5 -99q-6 -3 -9 2q-2 6 5 9h2q20 7 45.5 80t25.5 156q-8 -8 -25 -8q-31 0 -52 20.5t-21 50.5z" />
<glyph unicode="&#x201a;" horiz-adv-x="272" d="M71 65q0 31 20.5 52t52.5 21q35 0 62 -28.5t27 -69.5q0 -51 -13.5 -102.5t-34 -88.5t-43.5 -62.5t-42 -31.5q-6 -3 -9 3q-2 5 5 8q1 0 2 1q12 4 28 36t29.5 87t13.5 110q-9 -6 -25 -6q-31 0 -52 20t-21 51z" />
<glyph unicode="&#x201c;" horiz-adv-x="456" d="M28 1114q0 102 45 188t88 99q7 4 9 -4q2 -6 -7 -8q-20 -7 -45.5 -79.5t-25.5 -155.5q8 8 25 8q31 0 52.5 -21t21.5 -51q0 -32 -21.5 -53.5t-52.5 -21.5q-36 0 -62.5 29t-26.5 70zM213 1114q0 102 44.5 188t87.5 99q7 4 9 -4q2 -6 -7 -8q-12 -5 -28 -36.5t-29 -86.5 t-13 -112q8 8 24 8q31 0 52.5 -21t21.5 -51q0 -32 -21.5 -53.5t-52.5 -21.5q-35 0 -61.5 29t-26.5 70z" />
<glyph unicode="&#x201d;" horiz-adv-x="456" d="M23 1306q0 32 21 53.5t52 21.5q35 0 61.5 -28.5t26.5 -69.5q0 -102 -44.5 -188t-87.5 -99q-6 -3 -9 2q-2 6 5 9h2q20 7 45.5 80t25.5 156q-8 -8 -25 -8q-31 0 -52 20.5t-21 50.5zM211 1306q0 21 9.5 38t26.5 27t38 10q35 0 61.5 -28.5t26.5 -69.5q0 -53 -13.5 -104.5 t-33.5 -89t-43 -62.5t-42 -31q-6 -3 -9 2q-2 6 5 9h2q20 7 45 80t25 156q-8 -8 -24 -8q-31 0 -52.5 20.5t-21.5 50.5z" />
<glyph unicode="&#x201e;" horiz-adv-x="533" d="M98 65q0 31 21.5 52t52.5 21q36 0 62.5 -28.5t26.5 -69.5t-9 -83t-23.5 -75.5t-32 -61t-35.5 -44t-33 -21.5q-6 -3 -9 3q-2 5 5 8q1 0 2 1q20 7 45.5 79.5t25.5 153.5q-9 -6 -25 -6q-20 0 -37 9.5t-27 25.5t-10 36zM291 65q0 31 21.5 52t53.5 21q35 0 61.5 -28.5 t26.5 -69.5q0 -51 -13.5 -102.5t-34 -88.5t-43 -62.5t-42.5 -31.5q-6 -3 -9 3q-2 5 5 8q1 0 2 1q20 7 45 79.5t25 153.5q-9 -6 -23 -6q-32 0 -53.5 20.5t-21.5 50.5z" />
<glyph unicode="&#x2020;" horiz-adv-x="882" d="M0 873v111h364v119q0 52 -16 151.5t-37 110.5h199q-22 -11 -37 -110t-15 -152v-119h361v-111q-3 7 -14.5 12t-30 7.5t-36.5 4.5t-42.5 2.5t-40.5 0.5h-37.5h-25.5h-134v-1034q0 -53 15 -152t37 -109h-199q21 10 37 109.5t16 151.5v1034h-138h-25.5h-36.5t-39.5 -0.5 t-43 -2.5t-36.5 -4.5t-29.5 -7.5t-15.5 -12z" />
<glyph unicode="&#x2021;" horiz-adv-x="882" d="M6 358v111h363v431h-136h-25.5h-37t-40 -0.5t-42.5 -2.5t-36.5 -4.5t-30 -7.5t-15.5 -12v111h363v119q0 20 -3.5 59t-10 82.5t-16.5 79t-21 41.5h197q-21 -11 -36 -110t-15 -152v-119h361v-111q-2 5 -10 9.5t-20 7t-25.5 4.5t-30.5 3.5t-32.5 2t-33 0.5h-30h-26.5h-19 h-134v-431h361v-111q-4 9 -23.5 15.5t-51.5 8.5t-55.5 2.5t-58.5 -0.5t-38 -1h-134v-517q0 -53 15 -152t36 -109h-197q21 10 36 109t15 152v517h-136q-6 0 -25.5 0.5t-36.5 0.5h-40.5t-42.5 -2t-37 -4.5t-29.5 -7.5t-15.5 -12z" />
<glyph unicode="&#x2022;" horiz-adv-x="842" d="M0 644q0 102 49.5 187.5t135 134.5t187 49t187 -49t135 -134.5t49.5 -187.5t-49.5 -186.5t-135 -133.5t-187 -49t-187 49t-135 133.5t-49.5 186.5z" />
<glyph unicode="&#x2026;" horiz-adv-x="1015" d="M54 65q0 31 21.5 52t52.5 21t52 -21t21 -52q0 -30 -21 -50.5t-52 -20.5t-52.5 20.5t-21.5 50.5zM414 65q0 31 21 52t51 21q32 0 53 -21t21 -52t-21 -51t-53 -20q-30 0 -51 20.5t-21 50.5zM755 65q0 31 21 52t51 21q32 0 53.5 -21t21.5 -52q0 -30 -21.5 -50.5t-53.5 -20.5 q-30 0 -51 20.5t-21 50.5z" />
<glyph unicode="&#x202f;" horiz-adv-x="349" />
<glyph unicode="&#x2030;" horiz-adv-x="1605" d="M18 1042q0 77 22 142t57.5 106t78.5 64t86.5 23t86.5 -22.5t79 -63.5t58 -106t22 -143q0 -80 -22.5 -145.5t-58.5 -106t-79 -62t-87 -21.5t-86.5 21t-78 61.5t-57 106t-21.5 146.5zM111 0q96 170 357 688t331 677h82q-98 -173 -358 -689t-330 -676h-82zM117 1044 q-2 -145 38 -223t104 -78t105.5 75t43.5 222q1 136 -38.5 221.5t-100.5 85.5q-65 0 -108 -81.5t-44 -221.5zM484 325q0 78 22 143t57.5 106t78 64t86.5 23t87 -22.5t78.5 -63.5t57.5 -106.5t22 -143.5q0 -79 -22 -144t-58.5 -105.5t-79.5 -62t-87 -21.5q-35 0 -69 13 t-65.5 40t-55.5 65.5t-38 94t-14 120.5zM582 327q-1 -144 39 -222.5t103 -78.5q65 -1 107.5 74.5t43.5 222.5q2 136 -38.5 221.5t-101.5 85.5q-65 0 -108 -81.5t-45 -221.5zM1046 325q0 78 22 143t57.5 106t78.5 64t86.5 23t86.5 -22.5t78 -63.5t57 -106.5t22 -143.5 q0 -79 -22 -144t-58 -105.5t-78.5 -62t-87 -21.5t-86.5 21t-77.5 61t-57 105.5t-21.5 145.5zM1144 327q-2 -145 38 -223t103 -78q65 -1 106 74.5t44 222.5q1 136 -39 221.5t-101 85.5q-64 0 -107 -81.5t-44 -221.5z" />
<glyph unicode="&#x2039;" horiz-adv-x="693" d="M153 494v159q20 0 53.5 9t85.5 35t106 64.5t117.5 105.5t118.5 150q-6 -21 -20 -55t-37.5 -82.5t-58 -96.5t-75 -92t-95 -75.5t-111.5 -41.5q50 -11 97 -38t84 -61t70.5 -76t57.5 -81.5t43 -78.5t29.5 -66t15.5 -45q-55 82 -119 148.5t-118.5 105.5t-106.5 65.5t-85 36.5 t-52 10z" />
<glyph unicode="&#x203a;" horiz-adv-x="693" d="M62 128q5 22 19.5 55.5t38 80.5t58.5 94.5t75.5 91.5t94.5 77.5t112 46.5q-58 10 -112 41.5t-95 75.5t-75 92t-58 96.5t-38 82.5t-20 55q54 -83 118 -150t118.5 -105.5t106.5 -64.5t85.5 -35t53.5 -9v-159q-19 0 -52.5 -10t-85.5 -36.5t-106.5 -65.5t-119 -105.5 t-118.5 -148.5z" />
<glyph unicode="&#x2044;" horiz-adv-x="952" d="M-6 0q39 70 164 276.5t249 410.5t240 404.5t148 273.5h98q-46 -83 -234.5 -392.5t-357.5 -595t-209 -377.5h-98z" />
<glyph unicode="&#x205f;" horiz-adv-x="437" />
<glyph unicode="&#x20ac;" horiz-adv-x="1103" d="M2 572l22 62h150v44q0 54 2 79h-172l22 62h154q32 270 177 414t380 144q54 0 117 -20t99 -40l37 -20v-238q-35 117 -112.5 190.5t-170.5 73.5q-151 0 -252 -130.5t-122 -373.5h201q90 0 160.5 4t107 9t60.5 10t31 9l7 4l-57 -131q-2 4 -13.5 9.5t-95.5 14.5t-226 9h-177 q-2 -16 -2 -52q0 -48 2 -71h125q89 0 159.5 4t107.5 9t61 10.5t31 9.5l6 3l-57 -130q-1 4 -12.5 9t-96 14t-226.5 9h-94q10 -91 34 -166t57 -125.5t71.5 -88t81 -58.5t81.5 -30.5t77 -9.5q51 0 98.5 12t84.5 32t61.5 38t44.5 37q-2 -20 -13.5 -45.5t-39 -58t-65.5 -58.5 t-100 -44.5t-136 -18.5q-96 0 -176 33.5t-134 89t-94 132.5t-60.5 158t-29.5 171h-176z" />
<glyph unicode="&#x2122;" horiz-adv-x="611" d="M65 1337v28h192v-28h-77v-402h-36v402h-79zM313 935v430h58l87 -361l94 361h57v-430h-31v406l-105 -406h-29l-99 406v-406h-32z" />
<glyph unicode="&#x25fc;" horiz-adv-x="912" d="M0 0v913h913v-913h-913z" />
</font>
</defs>
</svg>
